>

5.6

iTunes

6.1

MVO

5.7

MVO

1

7.4

1 сезон

6.8

iTunes

7.2

1 сезон

13

6.7

1 сезон

8.3

RePack

30

Deluxe

pack

9.9

Лицензия

ВАЖНО

ИГРА 18+

pack

7.3

RePack

MK11

7.7

RePack

jed

7.8

RePack

fifa19

8.5

RePack

RDR2

RePack

NEED FOR SPEED™ PAYBACK

4 сезон

9 сезон

Бесстыжие 9 сезон

Все сериалы

все сериалы на PB.wtf

RePack

FAR CRY 5

Anonymous, доброе утро, мы катастрофически не успеваем собрать деньги на оплату серверов, помогите нам пожалуйста 5,10,15р., для нас важна любая помощь . В качестве благодарности мы отключим Вам всю рекламу на сайте (укажите свой ник в строку Ваше имя)!

×
  
Magnet ссылка

Обгоняя ветер / Резвый конь / Race Gurram (Сурендра Редди ) [2014, боевик, мелодрама, комедия, WEB-DLRip, Любительский (двухголосый) [den904, DeadSno] freetor.icu

Обгоняя ветер через торрент freetor.icu

Размер: 1.46 GB | Добавлен: 6 лет 7 мес. назад | Торрент скачан:62 раза
Смотреть онлайн Обгоняя ветер | Скачать    Ребята, помогите собрать деньги на оплату серверов!!!

13-02-2015 07:57 Обгоняя ветер Скачать торрент  


Обгоняя ветер / Резвый конь / Race Gurram


Информация:
Год выпуска:2014
Страна: Индия
Жанр:боевик, мелодрама, комедия
Продолжительность02:39:59
Перевод:Любительский (двухголосый) [den904, DeadSno]
Субтитры: Русские (на песни)
Режиссер:Сурендра Редди

В ролях:


Али, Аллу Арджун, Салони Ашвани, Брахманандам, Шрути Хасан, Рави Кишан, Шриниваса Рао Кота, Пракаш Радж

Описание:
Лаки и Рам – два брата - абсолютные противоположности друг другу. Рам привык жить честно и свою жизнь посвятил служению Родине, вступив в ряды полиции. А Лаки – бездельник, который прожигает жизнь и привык жить на всё готовое. Стычки интересов братьев происходят ежедневно и их родители, обеспокоенные не на шутку их враждой, молятся, чтобы однажды они зажили в полной гармонии, как Рама и Лакшмана из эпоса «Рамаяна». Тем временем, в штате появляется бандит по имени Шива Редди, сын кровожадного политика Педди Редди. По воле случая, Лаки оказывается замешан в разборки с Шивой. Тут начинается проверка настоящих братских чувств Рама

  • Мировая премьера:10 апреля 2014

    Тех.Данные:
    Качество: WEB-DLRip
    Формат:AVI
    Видео кодек: XviD
    Аудио кодек:MP3
    Видео: XviD, 688x288 (2.40:1), 1167kbps, 25 fps, 0,225 bpp
    Аудио: MP3 / 2.0 / 48 kHz / 128 kbps /


    Код:

    General
    Complete name                            : D:\Торенты\Rezvyi.Kony.2014.WEB-DLRip.XviD.Kolobok-soso4eg.avi
    Format                                   : AVI
    Format/Info                              : Audio Video Interleave
    File size                                : 1.46 GiB
    Duration                                 : 2h 39mn
    Overall bit rate                         : 1 306 Kbps
    Movie name                               : Race.Gurram.2014.WEB-DLRip.XviD.Kolobok-soso4eg
    Director                                 : soso4eg
    Writing application                      : VirtualDubMod 1.5.10.3 | www.virtualdub-fr.org || (build 2550/release)
    Original source form/Name                : Telugu
    Copyright                                : специально для BitTorrent трекер RuTracker.org (ex torrents.ru)
    Comment                                  : пер. DeadSno & den904 по суб. Honey&Haseena

    Video
    ID                                       : 0
    Format                                   : MPEG-4 Visual
    Format profile                           : Advanced Simple@L5
    Format settings, BVOP                    : 2
    Format settings, QPel                    : No
    Format settings, GMC                     : No warppoints
    Format settings, Matrix                  : Default (MPEG)
    Codec ID                                 : XVID
    Codec ID/Hint                            : XviD
    Duration                                 : 2h 39mn
    Bit rate                                 : 1167 Kbps
    Width                                    : 688 pixels
    Height                                   : 288 pixels
    Display aspect ratio                     : 2.40:1
    Frame rate                               : 25.000 fps
    Color space                              : YUV
    Chroma subsampling                       : 4:2:0
    Bit depth                                : 8 bits
    Scan type                                : Progressive
    Compression mode                         : Lossy
    Bits/(Pixel*Frame)                       : 0.225
    Stream size                              : 1.25 GiB (86%)
    Writing library                          : XviD 1.2.1 (UTC 2008-12-04)

    Audio
    ID                                       : 1
    Format                                   : MPEG Audio
    Format version                           : Version 1
    Format profile                           : Layer 3
    Codec ID                                 : 55
    Codec ID/Hint                            : MP3
    Duration                                 : 2h 39mn
    Bit rate mode                            : Constant
    Bit rate                                 : 128 Kbps
    Channel(s)                               : 2 channels
    Sampling rate                            : 48.0 KHz
    Compression mode                         : Lossy
    Stream size                              : 146 MiB (10%)
    Alignment                                : Aligned on interleaves
    Writing library                          : LAME3.99r
    Encoding settings                        : -m s -V 4 -q 2 -lowpass 17 -b 128

    Скриншоты:


    © Оформление by Ворон
    freetor.icu



  • Скачать Обгоняя ветер через торрент https://pic1.kartinco.top/images/61/ordi9.jpg Скачать, смотреть онлайн Обгоняя ветер бесплантно в хорошем качестве Год выпуска:2014✦ Страна: Индия✦ Жанр:боевик, мелодрама, комедия✦ Продолжительность02:39:59✦ Перевод: (двухголосый) [den904, ... 10 10 3
    Торрент: Зарегистрирован [2015-02-13 07:57] · скачан: 62 раз
    Статус: √ проверено
    Размер: 1.46 GB
    Как cкачать? Как скачать Обгоняя ветер через торрент | UTorrent

    28-11-2019 20:33  

    Отключить всю рекламу на сайте

      Дорогой пользователь! Огромная просьба, поблагодарите релизера, оцените раздачу и оставьте свои комментарий, если Вы скачали Обгоняя ветер через торрент бесплатно!
      Комментировать посты могут только пользователи прошедшие не сложную регистрацию
      Показать сообщения:    

      Обгоняя ветер через торрент
      Скачать бесплатно Обгоняя ветер
      Обгоняя ветер скачать торрент
      Обгоняя ветер смотреть онлайн
      Cкачать фильм Обгоняя ветер бесплатно
      Обгоняя ветер скачать торрент в хорошем качестве
      Обгоняя ветер смотреть онлайн бесплатно в хорошем качестве


      Вы не можете начинать темы
      Вы не можете отвечать на сообщения
      Вы не можете редактировать свои сообщения
      Вы не можете удалять свои сообщения
      Вы не можете голосовать в опросах
      Вы не можете прикреплять файлы к сообщениям
      Вы можете скачивать файлы