>

5.6

iTunes

6.1

MVO

5.7

MVO

1

7.4

1 сезон

6.8

iTunes

7.2

1 сезон

13

6.7

1 сезон

8.3

RePack

30

Deluxe

pack

9.9

Лицензия

ВАЖНО

ИГРА 18+

pack

7.3

RePack

MK11

7.7

RePack

jed

7.8

RePack

fifa19

8.5

RePack

RDR2

RePack

NEED FOR SPEED™ PAYBACK

4 сезон

9 сезон

Бесстыжие 9 сезон

Все сериалы

все сериалы на PB.wtf

RePack

FAR CRY 5

Anonymous, добрый вечер, мы катастрофически не успеваем собрать деньги на оплату серверов, помогите нам пожалуйста 5,10,15р., для нас важна любая помощь . В качестве благодарности мы отключим Вам всю рекламу на сайте (укажите свой ник в строку Ваше имя)!

×
  
Magnet ссылка

Вместе / Manam (Викрам К. Кумар ) [2014, фэнтези, драма, комедия, BDRip 720p, Любительский (многоголосый)[ICG] freetor.icu

Вместе через торрент freetor.icu

Размер: 4.86 GB | Добавлен: 6 лет 7 мес. назад | Торрент скачан:22 раза
Смотреть онлайн Вместе | Скачать    Ребята, помогите собрать деньги на оплату серверов!!!

12-02-2015 02:16 Вместе Скачать торрент  


Вместе / Manam


ИНФОРМАЦИЯ:
Год выпуска:2014
Страна: Индия
Жанр:фэнтези, драма, комедия
Продолжительность02:41:16
Перевод:Любительский (многоголосый) [ICG]
Субтитры: английские (English Subs - DDR), русские (На песни), русские (Полные)
Режиссер:Викрам К. Кумар

В Ролях:


Аккинени Нагешвара Рао (Chaitanya), Нагарджуна Акинени (Nageshwara Rao / Seetharamudu), Нага Чайтания (Nagarjuna / Radha Mohan), Саманта (Priya / Krishna Veni), Шрия (Anjali / Rama Lakshmi), Амитабх Баччан (Pratap), Брахманандам (Girish Karnad), М.С. Нарьяна, Акил Акинени (Akhil), Али (Leonardo DiCaprio), Джаяпракаш Редди, Кришна Мурали Посани

ОПИСАНИЕ:
Радха и Кришна поженились по договоренности, любовь пришла сразу. Но с годами семейная лодка разбилась о рифы недопонимания и непрощения. Виноваты оба, а страдал от бесконечных ссор родителей их шестилетний сын. И когда родители вдруг погибли в автоаварии, он всю жизнь бережно хранил память о них в своем сердце. Пока однажды в самолете не случилась встреча, перевернувшая его жизнь...


ТЕХ.ДАННЫЕ:
Качество: BDRip 720p
Формат:MKV
Видео кодек: AVC
Аудио кодек:AC3
Видео: AVC, 1280x544 (2.35:1), 3928 kbps, 24 fps, 0,199 bpp
Аудио №1: русский / AC3 / 5.1 / 48 kHz / 448 kbps / 16 bit ||
Аудио №2: Telugu / AC3 / 5.1 / 48 kHz / 448 kbps / 16 bit
Навигация по главам: есть

Код:

General
Unique ID                                : 201876498453249155188741754177983699046 (0x97DFFFD500BAFAE9B0001A9C0AB15866)
Complete name                            : D:\Торенты\Manam.2014.BDRip.720p.Rus.Original.ICG.GF.W.mkv
Format                                   : Matroska
Format version                           : Version 2
File size                                : 4.86 GiB
Duration                                 : 2h 41mn
Overall bit rate                         : 4 310 Kbps
Encoded date                             : UTC 2015-02-11 16:20:05
Writing application                      : mkvmerge v5.6.0 ('Kenya Kane') built on May 27 2012 16:44:04
Writing library                          : libebml v1.2.3 + libmatroska v1.3.0

Video
ID                                       : 1
Format                                   : AVC
Format/Info                              : Advanced Video Codec
Format profile                           : High@L4.1
Format settings, CABAC                   : Yes
Format settings, ReFrames                : 8 frames
Codec ID                                 : V_MPEG4/ISO/AVC
Duration                                 : 2h 41mn
Bit rate                                 : 3 928 Kbps
Width                                    : 1 280 pixels
Height                                   : 544 pixels
Display aspect ratio                     : 2.35:1
Frame rate                               : 24.000 fps
Color space                              : YUV
Chroma subsampling                       : 4:2:0
Bit depth                                : 8 bits
Scan type                                : Progressive
Bits/(Pixel*Frame)                       : 0.199
Stream size                              : 3.75 GiB (77%)
Title                                    : PuLi - Manam - 720p - DDR
Language                                 : Telugu
Default                                  : Yes
Forced                                   : No
Color primaries                          : BT.709-5, BT.1361, IEC 61966-2-4, SMPTE RP177
Transfer characteristics                 : BT.709-5, BT.1361
Matrix coefficients                      : BT.709-5, BT.1361, IEC 61966-2-4 709, SMPTE RP177

Audio #1
ID                                       : 2
Format                                   : AC-3
Format/Info                              : Audio Coding 3
Mode extension                           : CM (complete main)
Codec ID                                 : A_AC3
Duration                                 : 2h 41mn
Bit rate mode                            : Constant
Bit rate                                 : 448 Kbps
Channel(s)                               : 6 channels
Channel positions                        : Front: L C R, Side: L R, LFE
Sampling rate                            : 48.0 KHz
Bit depth                                : 16 bits
Compression mode                         : Lossy
Delay relative to video                  : 20ms
Stream size                              : 517 MiB (10%)
Title                                    : ICG
Language                                 : Russian
Default                                  : Yes
Forced                                   : Yes

Audio #2
ID                                       : 3
Format                                   : AC-3
Format/Info                              : Audio Coding 3
Mode extension                           : CM (complete main)
Codec ID                                 : A_AC3
Duration                                 : 2h 41mn
Bit rate mode                            : Constant
Bit rate                                 : 448 Kbps
Channel(s)                               : 6 channels
Channel positions                        : Front: L C R, Side: L R, LFE
Sampling rate                            : 48.0 KHz
Bit depth                                : 16 bits
Compression mode                         : Lossy
Delay relative to video                  : 20ms
Stream size                              : 517 MiB (10%)
Title                                    : AC3 - 5.1Ch - DDR
Language                                 : Telugu
Default                                  : No
Forced                                   : No

Text #1
ID                                       : 4
Format                                   : UTF-8
Codec ID                                 : S_TEXT/UTF8
Codec ID/Info                            : UTF-8 Plain Text
Title                                    : English Subs - DDR
Language                                 : English
Default                                  : No
Forced                                   : No

Text #2
ID                                       : 5
Format                                   : UTF-8
Codec ID                                 : S_TEXT/UTF8
Codec ID/Info                            : UTF-8 Plain Text
Title                                    : На песни
Language                                 : Russian
Default                                  : Yes
Forced                                   : Yes

Text #3
ID                                       : 6
Format                                   : UTF-8
Codec ID                                 : S_TEXT/UTF8
Codec ID/Info                            : UTF-8 Plain Text
Title                                    : Полные
Language                                 : Russian
Default                                  : No
Forced                                   : No

Menu
00:00:00.000                             : te:00:00:00.000
00:05:50.167                             : te:00:07:25.667
00:10:22.500                             : te:00:11:58.000
00:18:32.167                             : te:00:20:07.667
00:20:52.375                             : te:00:22:27.875
00:28:37.208                             : te:00:30:12.708
00:34:10.333                             : te:00:35:45.833
00:51:28.750                             : te:00:53:04.250
00:59:59.583                             : te:01:01:35.083
01:04:03.292                             : te:01:05:38.792
01:10:01.083                             : te:01:11:36.583
01:14:52.125                             : te:01:16:27.625
01:28:42.125                             : te:01:30:17.625
01:37:36.167                             : te:01:39:11.667
01:42:19.792                             : te:01:43:55.292
01:49:34.542                             : te:01:51:10.042
01:57:16.042                             : te:01:58:51.542
02:00:36.333                             : te:02:02:11.833
02:06:08.458                             : te:02:07:43.958
02:14:08.167                             : te:02:15:43.667
02:20:33.167                             : te:02:22:08.667
02:36:02.167                             : te:02:37:37.667

Скриншоты:


© Оформление by Ворон
freetor.icu



Скачать Вместе через торрент https://pic1.kartinco.top/images/61/ordi9.jpg Скачать, смотреть онлайн Вместе бесплантно в хорошем качестве Е:Радха и Кришна поженились по договоренности, любовь пришла сразу. Но с годами семейная лодка разбилась о рифы недопонимания и непрощения. ... 10 10 1
Торрент: Зарегистрирован [2015-02-12 02:16] · скачан: 22 раз
Статус: √ проверено
Размер: 4.86 GB
Как cкачать? Как скачать Вместе через торрент | UTorrent

% Раздел Тема Автор DL S | L
Гонзо [ 1.29 GB ] Слишком маленькая чтобы вместить его целиком 7 / Too Small To Take It All 7 [2014 All Sex Big Dicks Teens WEB-DLRip Оригинал] 19alexei87 Скачать
1 | 0

28-11-2019 20:33  

Отключить всю рекламу на сайте

    Дорогой пользователь! Огромная просьба, поблагодарите релизера, оцените раздачу и оставьте свои комментарий, если Вы скачали Вместе через торрент бесплатно!
    Комментировать посты могут только пользователи прошедшие не сложную регистрацию
    Показать сообщения:    

    Вместе через торрент
    Скачать бесплатно Вместе
    Вместе скачать торрент
    Вместе смотреть онлайн
    Cкачать фильм Вместе бесплатно
    Вместе скачать торрент в хорошем качестве
    Вместе смотреть онлайн бесплатно в хорошем качестве


    Вы не можете начинать темы
    Вы не можете отвечать на сообщения
    Вы не можете редактировать свои сообщения
    Вы не можете удалять свои сообщения
    Вы не можете голосовать в опросах
    Вы не можете прикреплять файлы к сообщениям
    Вы можете скачивать файлы