>

5.6

iTunes

6.1

MVO

5.7

MVO

1

7.4

1 сезон

6.8

iTunes

7.2

1 сезон

13

6.7

1 сезон

8.3

RePack

30

Deluxe

pack

9.9

Лицензия

ВАЖНО

ИГРА 18+

pack

7.3

RePack

MK11

7.7

RePack

jed

7.8

RePack

fifa19

8.5

RePack

RDR2

RePack

NEED FOR SPEED™ PAYBACK

4 сезон

9 сезон

Бесстыжие 9 сезон

Все сериалы

все сериалы на PB.wtf

RePack

FAR CRY 5

Anonymous, добрый вечер, мы катастрофически не успеваем собрать деньги на оплату серверов, помогите нам пожалуйста 5,10,15р., для нас важна любая помощь . В качестве благодарности мы отключим Вам всю рекламу на сайте (укажите свой ник в строку Ваше имя)!

×
  
Magnet ссылка

Револьвер Рани / Revolver Rani (Сай Кабир ) [2014, боевик, драма, мелодрама, DVDRip, Любительский (двухголосый) [den904, DeadSno] freetor.icu

Револьвер Рани через торрент freetor.icu

Размер: 1.42 GB | Добавлен: 6 лет 7 мес. назад | Торрент скачан:14 раз
Смотреть онлайн Револьвер Рани | Скачать    Ребята, помогите собрать деньги на оплату серверов!!!

10-02-2015 12:02 Револьвер Рани Скачать торрент  


Револьвер Рани / Revolver Rani
«Ab Mard Ko Dard Hoga»

Информация:
Год выпуска:2014
Страна: Индия
Жанр:боевик, драма, мелодрама, комедия, криминал
Продолжительность02:11:01
Перевод:Любительский (двухголосый) [den904, DeadSno]
Режиссер:Сай Кабир

В ролях:


Кангана Ранаут (Alka Singh (Revolver Rani)), Вир Дас (Rohan Mehra), Закир Хуссэйн (Udaybhan Tomar), Jami Jafry (Mithilesh Singh), Zafar Khan (Bheem Singh), Кумуд Мишра (Tomar), Пиюш Мишра (Bali), Zeishan Quadri (Pilot), Панкадж Сарасват (Govind Tomar), Abhijeet Shetty (Viru), Preeti Sood (Gutki)

Описание:
На враждебной земле Чамбал, которая является родиной повстанцев, политиков, оружий и смертей, ты должен выжить с оружием в руках, либо умереть от него. У Алки Сингх в этом городе нет друзей, есть только маленькая партия, да впридачу со смертельными врагами, которые готовы ей в любую минуту пустить пулю в лоб.Револьвер Рани является необычной сатирической историей, которая разворачивается на фоне политики. Алка Сингх является лидером политической партии, да ещё и безумно влюблена в восходящую звезду Болливуда, Рохана Капура. Выборы в Гвалиоре ожесточаются с появлением конкурента Алки, партии Томар, которая жаждет власти и хочет убрать с поле боя Алку. Но наша героиня не так проста, как кажется на первый взгляд...

  • Мировая премьера:24 апреля 2014

    Тех.Данные:
    Качество: DVDRip
    Формат:AVI
    Видео кодек: XviD
    Аудио кодек:AC3
    Видео: XviD, 720x304 (2.35:1), 1350 kbps, 23,976 fps, 0,246 bpp
    Аудио: AC3 / 2.0 / 48 kHz / 192 kbps / 16 bit

    Код:

    General
    Complete name                            : D:\Торенты\Revolver.Rani.2014.DVDRip.avi
    Format                                   : AVI
    Format/Info                              : Audio Video Interleave
    File size                                : 1.42 GiB
    Duration                                 : 2h 11mn
    Overall bit rate                         : 1 552 Kbps
    Writing application                      : VirtualDubMod 1.5.10.2 (build 2540/release)
    Writing library                          : VirtualDubMod build 2540/release

    Video
    ID                                       : 0
    Format                                   : MPEG-4 Visual
    Format profile                           : Simple@L3
    Format settings, BVOP                    : No
    Format settings, QPel                    : No
    Format settings, GMC                     : No warppoints
    Format settings, Matrix                  : Default (H.263)
    Codec ID                                 : XVID
    Codec ID/Hint                            : XviD
    Duration                                 : 2h 11mn
    Bit rate                                 : 1350 Kbps
    Width                                    : 720 pixels
    Height                                   : 304 pixels
    Display aspect ratio                     : 2.35:1
    Frame rate                               : 23.976 fps
    Color space                              : YUV
    Chroma subsampling                       : 4:2:0
    Bit depth                                : 8 bits
    Scan type                                : Progressive
    Compression mode                         : Lossy
    Bits/(Pixel*Frame)                       : 0.246
    Stream size                              : 1.18 GiB (83%)
    Writing library                          : XviD 64

    Audio
    ID                                       : 1
    Format                                   : AC-3
    Format/Info                              : Audio Coding 3
    Mode extension                           : CM (complete main)
    Codec ID                                 : 2000
    Duration                                 : 2h 11mn
    Bit rate mode                            : Constant
    Bit rate                                 : 192 Kbps
    Channel(s)                               : 2 channels
    Channel positions                        : Front: L R
    Sampling rate                            : 48.0 KHz
    Bit depth                                : 16 bits
    Compression mode                         : Lossy
    Stream size                              : 180 MiB (12%)
    Alignment                                : Aligned on interleaves

    Скриншоты:


    © Оформление by Ворон
    freetor.icu



  • Скачать Револьвер Рани через торрент https://pic1.kartinco.top/images/61/ordi9.jpg Скачать, смотреть онлайн Револьвер Рани бесплантно в хорошем качестве Год выпуска:2014✦ Страна: Индия✦ Жанр:боевик, драма, мелодрама, комедия, криминал ✦ Продолжительность02:11:01✦ ... 10 10 2
    Торрент: Зарегистрирован [2015-02-10 12:02] · скачан: 14 раз
    Статус: √ проверено
    Размер: 1.42 GB
    Как cкачать? Как скачать Револьвер Рани через торрент | UTorrent

    28-11-2019 20:33  

    Отключить всю рекламу на сайте

      Дорогой пользователь! Огромная просьба, поблагодарите релизера, оцените раздачу и оставьте свои комментарий, если Вы скачали Револьвер Рани через торрент бесплатно!
      Комментировать посты могут только пользователи прошедшие не сложную регистрацию
      Показать сообщения:    

      Револьвер Рани через торрент
      Скачать бесплатно Револьвер Рани
      Револьвер Рани скачать торрент
      Револьвер Рани смотреть онлайн
      Cкачать фильм Револьвер Рани бесплатно
      Револьвер Рани скачать торрент в хорошем качестве
      Револьвер Рани смотреть онлайн бесплатно в хорошем качестве


      Вы не можете начинать темы
      Вы не можете отвечать на сообщения
      Вы не можете редактировать свои сообщения
      Вы не можете удалять свои сообщения
      Вы не можете голосовать в опросах
      Вы не можете прикреплять файлы к сообщениям
      Вы можете скачивать файлы