>

5.6

iTunes

6.1

MVO

5.7

MVO

1

7.4

1 сезон

6.8

iTunes

7.2

1 сезон

13

6.7

1 сезон

8.3

RePack

30

Deluxe

pack

9.9

Лицензия

ВАЖНО

ИГРА 18+

pack

7.3

RePack

MK11

7.7

RePack

jed

7.8

RePack

fifa19

8.5

RePack

RDR2

RePack

NEED FOR SPEED™ PAYBACK

4 сезон

9 сезон

Бесстыжие 9 сезон

Все сериалы

все сериалы на PB.wtf

RePack

FAR CRY 5

Anonymous, добрый день, мы катастрофически не успеваем собрать деньги на оплату серверов, помогите нам пожалуйста 5,10,15р., для нас важна любая помощь . В качестве благодарности мы отключим Вам всю рекламу на сайте (укажите свой ник в строку Ваше имя)!

×
  
Magnet ссылка

Да здравствует победа! / Jai Ho (Сохаил Кхан ) [2014, боевик, драма, HDRip, Профессиональный (многоголосый)[Red Media] freetor.icu

Да здравствует победа! через торрент freetor.icu

Размер: 1.65 GB | Добавлен: 6 лет 7 мес. назад | Торрент скачан:73 раза
Смотреть онлайн Да здравствует победа! | Скачать    Ребята, помогите собрать деньги на оплату серверов!!!

01-02-2015 13:17 Да здравствует победа! Скачать торрент  


Да здравствует победа! / Jai Ho
«People's Man»

Информация:
Год выпуска:2014
Страна: Индия
Жанр:боевик, драма
Продолжительность02:20:55
Перевод:Профессиональный (многоголосый)[Red Media]
Режиссер:Сохаил Кхан

В ролях:

Салман Кхан (Major Jai Agnihotri), Табу (Geeta Agnihotri), Сунил Шетти (Officer Arjun Kaul), Дженелия Д’Суза (Suman), Сана Кхан (Home Ministers Daughter), Дэнни Дензонгпа (Home Minister (Villian)), Махеш Манджрекар (Babban), Тулип Джоши (Anjali), Пулкит Самрат (Police Officer), Мохниш Бехл (Ashok Pradhan), Адитья Панчоли (Dilip Kadam), Бруна Абдалах (Anne)
Описание:
Чтобы быть героем, необязательно носить военную форму.

  • Мировая премьера:23 января 2014

    Тех.Данные:
    Качество: HDRip
    Формат:AVI
    Видео кодек: XviD
    Аудио кодек:MP3
    Видео: XviD, 720x304 (2.35:1), 1533 kbps, 24 fps, 0,279 bpp
    Аудио: MP3 / 2.0 / 44 kHz / 128 kbps /

    Код:

    General
    Complete name                            : D:\Торенты\Plata.Za.Pobedy.2014.XviD.HDRip.oktober.avi
    Format                                   : AVI
    Format/Info                              : Audio Video Interleave
    File size                                : 1.65 GiB
    Duration                                 : 2h 20mn
    Overall bit rate                         : 1 671 Kbps
    Writing application                      : VirtualDubMod 1.5.10.2 (build 2540/release)
    Writing library                          : VirtualDubMod build 2540/release

    Video
    ID                                       : 0
    Format                                   : MPEG-4 Visual
    Format profile                           : Advanced Simple@L5
    Format settings, BVOP                    : 1
    Format settings, QPel                    : No
    Format settings, GMC                     : No warppoints
    Format settings, Matrix                  : Default (MPEG)
    Codec ID                                 : XVID
    Codec ID/Hint                            : XviD
    Duration                                 : 2h 20mn
    Bit rate                                 :  1533 Kbps
    Width                                    : 720 pixels
    Height                                   : 304 pixels
    Display aspect ratio                     : 2.35:1
    Frame rate                               : 24.000 fps
    Color space                              : YUV
    Chroma subsampling                       : 4:2:0
    Bit depth                                : 8 bits
    Scan type                                : Progressive
    Compression mode                         : Lossy
    Bits/(Pixel*Frame)                       : 0.279
    Stream size                              : 1.45 GiB (88%)
    Writing library                          : XviD 64

    Audio
    ID                                       : 1
    Format                                   : MPEG Audio
    Format version                           : Version 1
    Format profile                           : Layer 3
    Mode                                     : Joint stereo
    Mode extension                           : MS Stereo
    Codec ID                                 : 55
    Codec ID/Hint                            : MP3
    Duration                                 : 2h 20mn
    Bit rate mode                            : Constant
    Bit rate                                 : 128 Kbps
    Channel(s)                               : 2 channels
    Sampling rate                            : 44.1 KHz
    Compression mode                         : Lossy
    Stream size                              : 129 MiB (8%)
    Alignment                                : Split accross interleaves

    Скриншоты:


    © Оформление by Ворон
    freetor.icu



  • Скачать Да здравствует победа! через торрент https://pic1.kartinco.top/images/61/ordi9.jpg Скачать, смотреть онлайн Да здравствует победа! бесплантно в хорошем качестве Год выпуска:2014✦ Страна: Индия✦ Жанр:боевик, драма ✦ Продолжительность02:20:55✦ Перевод:Профессиональный ()[Red ... 10 10 3
    Торрент: Зарегистрирован [2015-02-01 13:17] · скачан: 73 раз
    Статус: √ проверено
    Размер: 1.65 GB
    Как cкачать? Как скачать Да здравствует победа! через торрент | UTorrent

    28-11-2019 20:33  

    Отключить всю рекламу на сайте

      Дорогой пользователь! Огромная просьба, поблагодарите релизера, оцените раздачу и оставьте свои комментарий, если Вы скачали Да здравствует победа! через торрент бесплатно!
      Комментировать посты могут только пользователи прошедшие не сложную регистрацию
      Показать сообщения:    

      Да здравствует победа! через торрент
      Скачать бесплатно Да здравствует победа!
      Да здравствует победа! скачать торрент
      Да здравствует победа! смотреть онлайн
      Cкачать фильм Да здравствует победа! бесплатно
      Да здравствует победа! скачать торрент в хорошем качестве
      Да здравствует победа! смотреть онлайн бесплатно в хорошем качестве


      Вы не можете начинать темы
      Вы не можете отвечать на сообщения
      Вы не можете редактировать свои сообщения
      Вы не можете удалять свои сообщения
      Вы не можете голосовать в опросах
      Вы не можете прикреплять файлы к сообщениям
      Вы можете скачивать файлы