>

5.6

iTunes

6.1

MVO

5.7

MVO

1

7.4

1 сезон

6.8

iTunes

7.2

1 сезон

13

6.7

1 сезон

8.3

RePack

30

Deluxe

pack

9.9

Лицензия

ВАЖНО

ИГРА 18+

pack

7.3

RePack

MK11

7.7

RePack

jed

7.8

RePack

fifa19

8.5

RePack

RDR2

RePack

NEED FOR SPEED™ PAYBACK

4 сезон

9 сезон

Бесстыжие 9 сезон

Все сериалы

все сериалы на PB.wtf

RePack

FAR CRY 5

Anonymous, добрый вечер, мы катастрофически не успеваем собрать деньги на оплату серверов, помогите нам пожалуйста 5,10,15р., для нас важна любая помощь . В качестве благодарности мы отключим Вам всю рекламу на сайте (укажите свой ник в строку Ваше имя)!

×
  
Magnet ссылка

Полиция Мумбая / Mumbai Police (Рошан Эндрюс ) [2013, триллер, детектив, HDRip, Профессиональный (многоголосый) freetor.icu

Полиция Мумбая через торрент freetor.icu

Размер: 1.66 GB | Добавлен: 6 лет 7 мес. назад | Торрент скачан:35 раз
Смотреть онлайн Полиция Мумбая | Скачать    Ребята, помогите собрать деньги на оплату серверов!!!

27-01-2015 13:54 Полиция Мумбая Скачать торрент  

Полиция Мумбая / Mumbai Police

Год выпуска: 2013
Страна: Индия
Жанр: триллер, детектив
Продолжительность: 02:23:51
Перевод: Профессиональный (многоголосый)
Субтитры: Русские
Режиссер: Рошан Эндрюс
В ролях: Притхвирадж Сукумаран (ACP Antony Moses), Рахман (CP Farhan Aman), Джаясурья (ACP Aaryan John Jacob), Мукундан (Caption Srinivas), Shwetha Menon (Doctor, в титрах не указан)
Описание:
Убит молодой офицер полиции Арья, который еще недавно расправился с террористами и стал национальным героем. Расследование поручают его близкому другу, Энтони, которому удается докопаться до правды и найти виновного. Но в тот момент, когда он звонит своему начальнику Фархану сказать об этом, он попадает в аварию. Врачи констатируют потерю памяти, в то время как пресса, общественность, начальство требуют в кратчайшие сроки раскрыть дело. Фархан скрывает проблемы со здоровьем Энтони ото всех, веря, что только он сможет раскрыть дело еще раз. Не зная ничего ни о людях вокруг, ни о себе, у него есть лишь материалы дела и уверенность его начальника, что он сможет...
Рейтинг:

Качество: HDRip
Формат: AVI
Видео кодек: XviD
Аудио кодек:AC3
Видео: XviD, 720x304 (2.35:1), 1255 kbps, 24 fps, 0,228 bpp
Аудио: AC3 / 2.0 / 48 kHz / 192 kbps / 16 bit

Код:

General
Complete name                            : D:\Торенты\Mumbayskaya.Policiya.2013.HDRip\Mumbayskaya.Policiya.2013.HDRip.avi
Format                                   : AVI
Format/Info                              : Audio Video Interleave
File size                                : 1.46 GiB
Duration                                 : 2h 23mn
Overall bit rate                         : 1 456 Kbps
Writing application                      : VirtualDubMod 1.5.10.2 (build 2540/release)
Writing library                          : VirtualDubMod build 2540/release

Video
ID                                       : 0
Format                                   : MPEG-4 Visual
Format profile                           : Advanced Simple@L5
Format settings, BVOP                    : 1
Format settings, QPel                    : No
Format settings, GMC                     : No warppoints
Format settings, Matrix                  : Custom
Codec ID                                 : XVID
Codec ID/Hint                            : XviD
Duration                                 : 2h 23mn
Bit rate                                 :  1255 Kbps
Width                                    : 720 pixels
Height                                   : 304 pixels
Display aspect ratio                     : 2.35:1
Frame rate                               : 24.000 fps
Color space                              : YUV
Chroma subsampling                       : 4:2:0
Bit depth                                : 8 bits
Scan type                                : Progressive
Compression mode                         : Lossy
Bits/(Pixel*Frame)                       : 0.228
Stream size                              : 1.20 GiB (82%)
Writing library                          : XviD 1.2.1 (UTC 2008-12-04)

Audio
ID                                       : 1
Format                                   : AC-3
Format/Info                              : Audio Coding 3
Mode extension                           : CM (complete main)
Codec ID                                 : 2000
Duration                                 : 2h 23mn
Bit rate mode                            : Constant
Bit rate                                 : 192 Kbps
Channel(s)                               : 2 channels
Channel positions                        : Front: L R
Sampling rate                            : 48.0 KHz
Bit depth                                : 16 bits
Compression mode                         : Lossy
Stream size                              : 198 MiB (13%)
Alignment                                : Split accross interleaves

freetor.icu



Скачать Полиция Мумбая через торрент http://i63.fastpic.ru/big/2015/0127/be/5c6795622ac46a951e6f061c3d7d4abe.jpg Скачать, смотреть онлайн Полиция Мумбая бесплантно в хорошем качестве Описание: Убит молодой офицер полиции Арья, который еще недавно расправился с террористами и стал национальным героем. Расследование ... 8.2 10 5
Торрент: Зарегистрирован [2015-01-27 13:54] · скачан: 35 раз
Статус: √ проверено
Размер: 1.66 GB
Как cкачать? Как скачать Полиция Мумбая через торрент | UTorrent

28-11-2019 20:33  

Отключить всю рекламу на сайте

27-01-2015 14:47 Полиция Мумбая Скачать торрент  

рейтинг просто поражает (Страна: Индия)....сами себе ставят что-ли???freetor.icu



    Дорогой пользователь! Огромная просьба, поблагодарите релизера, оцените раздачу и оставьте свои комментарий, если Вы скачали Полиция Мумбая через торрент бесплатно!
    Комментировать посты могут только пользователи прошедшие не сложную регистрацию
    Показать сообщения:    

    Полиция Мумбая через торрент
    Скачать бесплатно Полиция Мумбая
    Полиция Мумбая скачать торрент
    Полиция Мумбая смотреть онлайн
    Cкачать фильм Полиция Мумбая бесплатно
    Полиция Мумбая скачать торрент в хорошем качестве
    Полиция Мумбая смотреть онлайн бесплатно в хорошем качестве


    Вы не можете начинать темы
    Вы не можете отвечать на сообщения
    Вы не можете редактировать свои сообщения
    Вы не можете удалять свои сообщения
    Вы не можете голосовать в опросах
    Вы не можете прикреплять файлы к сообщениям
    Вы можете скачивать файлы