>

5.6

iTunes

6.1

MVO

5.7

MVO

1

7.4

1 сезон

6.8

iTunes

7.2

1 сезон

13

6.7

1 сезон

8.3

RePack

30

Deluxe

pack

9.9

Лицензия

ВАЖНО

ИГРА 18+

pack

7.3

RePack

MK11

7.7

RePack

jed

7.8

RePack

fifa19

8.5

RePack

RDR2

RePack

NEED FOR SPEED™ PAYBACK

4 сезон

9 сезон

Бесстыжие 9 сезон

Все сериалы

все сериалы на PB.wtf

RePack

FAR CRY 5

Anonymous, доброе утро, мы катастрофически не успеваем собрать деньги на оплату серверов, помогите нам пожалуйста 5,10,15р., для нас важна любая помощь . В качестве благодарности мы отключим Вам всю рекламу на сайте (укажите свой ник в строку Ваше имя)!

×
  
Magnet ссылка

Кабельный Интернет Сонали / Sonali Cable (Чару Датт Ачария) [2014, Драма, комедия, WEB-DL 720p] VO freetor.icu

Кабельный Интернет Сонали через торрент freetor.icu

Размер: 3.16 GB | Добавлен: 6 лет 7 мес. назад | Торрент скачан:22 раза
Смотреть онлайн Кабельный Интернет Сонали | Скачать    Ребята, помогите собрать деньги на оплату серверов!!!

27-01-2015 13:23 Кабельный Интернет Сонали Скачать торрент  

Информация о фильме

Название: Кабельный Интернет Сонали

Оригинальное название: Sonali Cable

Год выхода: 2014

Страна: Индия

Студия: Bombay Mania Productions

Продолжительность: 01:56:34

Перевод: Сергей Гиллан (это его первый индийский фильм!)

Озвучивание: Любительский одноголосый (закадровый) Райм Закиров (RAIM)

Жанр: Драма, комедия

Режиссер: Чару Датт Ачария

В ролях: Ри Чакраборти, Али Фазал, Смита Джайкар, Анупам Кхер, Свананд Киркире

Описание:

Сонали, пылкая девушка работающая в интренет центре. У неё преданные друзья и сотрудники. И однажды прилетает её возлюбленный друг детства из США, кторый помогает ей с заветной мечтой - окутать весь Мумбаи своей интернетной сетью. Но тут появляется крупная корпорация SHINING INC которая хочет во что бы то ни стало, подавить всех конкурентов и захватить в свои сети всю Индию!





Файл

Качество: WEB-DL 720p
Формат: MKV
Видео кодек: AVC
Аудио кодек: AC3,
Видео: 3302 Кбит/с, 1280x544, 24.000 кадра/сек
Звук: Русский (AC3, 2 ch, 192 Кбит/с), 48 kHz
Звук: хинди (AC3, 6 ch, 384 Кбит/с), 48 kHz
Общее
Уникальный идентификатор : 248999561905184043332304596887178286698 (0xBB53923CDDD5ABF49349A272E683966A)
Полное имя : D:\Торенты\Sonali Cable 2014 Hindi WEB-DL 720p x264 AC3 5.1...Hon3y.RAIM.jasinpapa.mkv
Формат : Matroska
Версия формата : Version 4 / Version 2
Размер файла : 3,16 Гбайт
Продолжительность : 1 ч. 56 м.
Общий поток : 3877 Кбит/сек
Название фильма : Sonali Cable (2014) - 720p - WebHD-Rip - Hindi - x264 - AC3 - 5.1 - ESubs - Mafiaking - Team M2TV ExClusive
Дата кодирования : UTC 2015-01-25 21:22:45
Программа кодирования : mkvmerge v7.2.0 ('On Every Street') 32bit built on Sep 13 2014 15:42:11
Библиотека кодирования : libebml v1.3.0 + libmatroska v1.4.1

Видео
Идентификатор : 1
Формат : AVC
Формат/Информация : Advanced Video Codec
Профиль формата : High@L4.1
Параметр CABAC формата : Да
Параметр ReFrames формата : 8 кадров
Идентификатор кодека : V_MPEG4/ISO/AVC
Продолжительность : 1 ч. 56 м.
Битрейт : 3302 Кбит/сек
Ширина : 1280 пикселей
Высота : 544 пикселя
Соотношение сторон : 2,35:1
Режим частоты кадров : Постоянный
Частота кадров : 24,000 кадра/сек
Цветовое пространство : YUV
Субдискретизация насыщенности : 4:2:0
Битовая глубина : 8 бит
Тип развёртки : Прогрессивная
Бит/(Пиксели*Кадры) : 0.198
Размер потока : 2,63 Гбайт (83%)
Библиотека кодирования : x264 core 142 r2453 ea0ca51
Настройки программы : cabac=1 / ref=8 / deblock=1:0:0 / analyse=0x3:0x133 / me=umh / subme=9 / psy=1 / psy_rd=1.00:0.00 / mixed_ref=1 / me_range=16 / chroma_me=1 / trellis=2 / 8x8dct=1 / cqm=0 / deadzone=21,11 / fast_pskip=0 / chroma_qp_offset=-2 / threads=12 / lookahead_threads=1 / sliced_threads=0 / nr=1000 / decimate=1 / interlaced=0 / bluray_compat=0 / constrained_intra=0 / bframes=3 / b_pyramid=2 / b_adapt=2 / b_bias=0 / direct=3 / weightb=1 / open_gop=0 / weightp=2 / keyint=250 / keyint_min=24 / scenecut=40 / intra_refresh=0 / rc_lookahead=60 / rc=2pass / mbtree=1 / bitrate=3302 / ratetol=1.0 / qcomp=0.60 / qpmin=0 / qpmax=69 / qpstep=4 / cplxblur=20.0 / qblur=0.5 / ip_ratio=1.40 / aq=1:1.00
Default : Да
Forced : Нет

Аудио #1
Идентификатор : 2
Формат : AC-3
Формат/Информация : Audio Coding 3
Расширение режима : CM (complete main)
Параметр Endianness формата : Big
Идентификатор кодека : A_AC3
Продолжительность : 1 ч. 56 м.
Вид битрейта : Постоянный
Битрейт : 192 Кбит/сек
Каналы : 2 канала
Расположение каналов : Front: L R
Частота : 48,0 КГц
Битовая глубина : 16 бит
Метод сжатия : С потерями
Размер потока : 160 Мбайт (5%)
Заголовок : RAIM
Язык : Russian
Default : Да
Forced : Нет

Аудио #2
Идентификатор : 3
Формат : AC-3
Формат/Информация : Audio Coding 3
Расширение режима : CM (complete main)
Параметр Endianness формата : Big
Идентификатор кодека : A_AC3
Продолжительность : 1 ч. 56 м.
Вид битрейта : Постоянный
Битрейт : 384 Кбит/сек
Каналы : 6 каналов
Расположение каналов : Front: L C R, Side: L R, LFE
Частота : 48,0 КГц
Битовая глубина : 16 бит
Метод сжатия : С потерями
Размер потока : 320 Мбайт (10%)
Заголовок : Hindi
Язык : Hindi
Default : Нет
Forced : Нет
Релиз от: Hon3y ,RAIM and jasinpapafreetor.icu



Скачать Кабельный Интернет Сонали через торрент http://s019.radikal.ru/i633/1501/9a/703ee9c0fcfe.jpg Скачать, смотреть онлайн Кабельный Интернет Сонали бесплантно в хорошем качестве Описание: Сонали, пылкая девушка работающая в интренет центре. У неё преданные друзья и сотрудники. И однажды прилетает её возлюбленный ... 10 10 2
Торрент: Зарегистрирован [2015-01-27 13:23] · скачан: 22 раз
Статус: T временная
Размер: 3.16 GB
Как cкачать? Как скачать Кабельный Интернет Сонали через торрент | UTorrent

28-11-2019 20:33  

Отключить всю рекламу на сайте

    Дорогой пользователь! Огромная просьба, поблагодарите релизера, оцените раздачу и оставьте свои комментарий, если Вы скачали Кабельный Интернет Сонали через торрент бесплатно!
    Комментировать посты могут только пользователи прошедшие не сложную регистрацию
    Показать сообщения:    

    Кабельный Интернет Сонали через торрент
    Скачать бесплатно Кабельный Интернет Сонали
    Кабельный Интернет Сонали скачать торрент
    Кабельный Интернет Сонали смотреть онлайн
    Cкачать фильм Кабельный Интернет Сонали бесплатно
    Кабельный Интернет Сонали скачать торрент в хорошем качестве
    Кабельный Интернет Сонали смотреть онлайн бесплатно в хорошем качестве


    Вы не можете начинать темы
    Вы не можете отвечать на сообщения
    Вы не можете редактировать свои сообщения
    Вы не можете удалять свои сообщения
    Вы не можете голосовать в опросах
    Вы не можете прикреплять файлы к сообщениям
    Вы можете скачивать файлы