>

5.6

iTunes

6.1

MVO

5.7

MVO

1

7.4

1 сезон

6.8

iTunes

7.2

1 сезон

13

6.7

1 сезон

8.3

RePack

30

Deluxe

pack

9.9

Лицензия

ВАЖНО

ИГРА 18+

pack

7.3

RePack

MK11

7.7

RePack

jed

7.8

RePack

fifa19

8.5

RePack

RDR2

RePack

NEED FOR SPEED™ PAYBACK

4 сезон

9 сезон

Бесстыжие 9 сезон

Все сериалы

все сериалы на PB.wtf

RePack

FAR CRY 5

Anonymous, добрый день, мы катастрофически не успеваем собрать деньги на оплату серверов, помогите нам пожалуйста 5,10,15р., для нас важна любая помощь . В качестве благодарности мы отключим Вам всю рекламу на сайте (укажите свой ник в строку Ваше имя)!

×
  
Magnet ссылка

Детектив Бобби / Bobby Jasoos (Самар Шайкх ) [2014, триллер, драма, комедия, DVDRip, Любительский (двухголосый) [den904, DeadSno] freetor.icu

Детектив Бобби через торрент freetor.icu

Размер: 1.4 GB | Добавлен: 6 лет 7 мес. назад | Торрент скачан:16 раз
Смотреть онлайн Детектив Бобби | Скачать    Ребята, помогите собрать деньги на оплату серверов!!!

26-01-2015 13:59 Детектив Бобби Скачать торрент  

Детектив Бобби / Bobby Jasoos

Год выпуска: 2014
Страна: Индия
Жанр: триллер, драма, комедия
Продолжительность: 02:01:30
Перевод: Любительский (двухголосый) [den904, DeadSno]
Субтитры: Русские (на песни)
Режиссер: Самар Шайкх
В ролях: Видья Балан (Bobby), Али Фазал (Tasawur), Mahima A (Amna Audition 3), Abhishek C (Sharma Coaching), Sukesh Anand (Sodhi), Anupriya (Afreen), Танви Азми (Kausar Khaala), Арджан Баджва (Lala), Прасад Барве (Shetty), Basavaraj (Yateem khana Man), Bhavna (Bahu), Ranjana Chilani (MQ Stationary Woman)
Описание:
История о Бобби, который хочет стать детективом номер один в старом районе города Хайдарабад.
Рейтинг:

Качество: DVDRip
Формат: AVI
Видео кодек: XviD
Аудио кодек:AC3
Видео: XviD, 720x304 (2.35:1), 1251 kbps, 23,976 fps, 0,227 bpp
Аудио №1: AC3 / 2.0 / 48 kHz / 192 kbps / RUS
Аудио №2: AC3 / 5.1 / 48 kHz / 192 kbps / хинди

Код:

General
Complete name                            : D:\Торенты\bobby.jasoos.2014.dvdrip.avi
Format                                   : AVI
Format/Info                              : Audio Video Interleave
File size                                : 1.40 GiB
Duration                                 : 2h 1mn
Overall bit rate                         : 1 650 Kbps
Movie name                               : Bobby Jasoos (2014) - DVDRip - XviD - AC3 [DDR]
Writing application                      : VirtualDubMod 1.5.10.2 (build 2540/release)
Writing library                          : VirtualDubMod build 2540/release

Video
ID                                       : 0
Format                                   : MPEG-4 Visual
Format profile                           : Simple@L3
Format settings, BVOP                    : No
Format settings, QPel                    : No
Format settings, GMC                     : No warppoints
Format settings, Matrix                  : Default (H.263)
Codec ID                                 : XVID
Codec ID/Hint                            : XviD
Duration                                 : 2h 1mn
Bit rate                                 :  1251 Kbps
Width                                    : 720 pixels
Height                                   : 304 pixels
Display aspect ratio                     : 2.35:1
Frame rate                               : 23.976 fps
Color space                              : YUV
Chroma subsampling                       : 4:2:0
Bit depth                                : 8 bits
Scan type                                : Progressive
Compression mode                         : Lossy
Bits/(Pixel*Frame)                       : 0.227
Stream size                              : 1.01 GiB (72%)
Writing library                          : XviD 64

Audio #1
ID                                       : 1
Format                                   : AC-3
Format/Info                              : Audio Coding 3
Mode extension                           : CM (complete main)
Codec ID                                 : 2000
Duration                                 : 2h 1mn
Bit rate mode                            : Constant
Bit rate                                 : 192 Kbps
Channel(s)                               : 2 channels
Channel positions                        : Front: L R
Sampling rate                            : 48.0 KHz
Bit depth                                : 16 bits
Compression mode                         : Lossy
Stream size                              : 167 MiB (12%)
Alignment                                : Aligned on interleaves

Audio #2
ID                                       : 2
Format                                   : AC-3
Format/Info                              : Audio Coding 3
Mode extension                           : CM (complete main)
Codec ID                                 : 2000
Duration                                 : 2h 1mn
Bit rate mode                            : Constant
Bit rate                                 : 192 Kbps
Channel(s)                               : 6 channels
Channel positions                        : Front: L C R, Side: L R, LFE
Sampling rate                            : 48.0 KHz
Bit depth                                : 16 bits
Compression mode                         : Lossy
Delay relative to video                  : 250ms
Stream size                              : 167 MiB (12%)
Alignment                                : Split accross interleaves

freetor.icu



Скачать Детектив Бобби через торрент http://i64.fastpic.ru/big/2015/0126/de/131c7c5cc7b2c498708452bf4423e3de.jpg Скачать, смотреть онлайн Детектив Бобби бесплантно в хорошем качестве Описание: История о Бобби, который хочет стать детективом номер один в старом районе города ... 7.8 10 4
Торрент: Зарегистрирован [2015-01-26 13:59] · скачан: 16 раз
Статус: √ проверено
Размер: 1.4 GB
Как cкачать? Как скачать Детектив Бобби через торрент | UTorrent

28-11-2019 20:33  

Отключить всю рекламу на сайте

    Дорогой пользователь! Огромная просьба, поблагодарите релизера, оцените раздачу и оставьте свои комментарий, если Вы скачали Детектив Бобби через торрент бесплатно!
    Комментировать посты могут только пользователи прошедшие не сложную регистрацию
    Показать сообщения:    

    Детектив Бобби через торрент
    Скачать бесплатно Детектив Бобби
    Детектив Бобби скачать торрент
    Детектив Бобби смотреть онлайн
    Cкачать фильм Детектив Бобби бесплатно
    Детектив Бобби скачать торрент в хорошем качестве
    Детектив Бобби смотреть онлайн бесплатно в хорошем качестве


    Вы не можете начинать темы
    Вы не можете отвечать на сообщения
    Вы не можете редактировать свои сообщения
    Вы не можете удалять свои сообщения
    Вы не можете голосовать в опросах
    Вы не можете прикреплять файлы к сообщениям
    Вы можете скачивать файлы