>

8.4

Хороший звук

6.1

MVO

6.4

Line & MVO

1

7.4

1 сезон

6.8

iTunes

7.2

1 сезон

13

6.7

1 сезон

8.3

RePack

30

Deluxe

pack

9.9

Лицензия

ВАЖНО

ИГРА 18+

pack

7.3

RePack

MK11

7.7

RePack

jed

7.8

RePack

fifa19

8.5

RePack

RDR2

RePack

NEED FOR SPEED™ PAYBACK

4 сезон

9 сезон

Бесстыжие 9 сезон

Все сериалы

все сериалы на PB.wtf

RePack

FAR CRY 5

Anonymous, доброе утро, мы катастрофически не успеваем собрать деньги на оплату серверов, помогите нам пожалуйста 5,10,15р., для нас важна любая помощь . В качестве благодарности мы отключим Вам всю рекламу на сайте (укажите свой ник в строку Ваше имя)!

×
  
Magnet ссылка

Хайдер / Haider (Вишал Бхарадвадж ) [2014, триллер, драма, мелодрама, HDRip, Любительский (двухголосый)[den904, DeadSno] freetor.icu

Хайдер через торрент freetor.icu

Размер: 1.46 GB | Добавлен: 6 лет 7 мес. назад | Торрент скачан:36 раз
Смотреть онлайн Хайдер | Скачать    Ребята, помогите собрать деньги на оплату серверов!!!

17-01-2015 12:21 Хайдер Скачать торрент  


Хайдер / Haider


Год выпуска:2014
Страна:Индия
Жанр:триллер, драма, мелодрама, криминал
Продолжительность: 02:41:21
Перевод:Любительский (двухголосый)[den904, DeadSno]
Субтитры: Русские (на песни)
Режиссер:Вишал Бхарадвадж
В ролях:

Табу (Ghazala Meer), Шахид Капур (Haider Meer), Шраддха Капур (Arshia, Haider's love-interest), Кэй Кэй Менон (Khurram Meer), Нарендра Джха (Dr. Hilal Meer), Кулбхушан Харбанда (Hussain Meer), Lalit Parimoo (Pervez Lone), Ашиш Видьятхи (Brigadier T.S Murthy), Амир Башир (Liyaqat, Arshia's brother), Sumit Kaul ((Salman 1), Courtier), Раджат Бхагат ((Salman 2), Courtier), Ашват Бхатт (Zahoor)
  • Описание:
    Индийская адаптация трагедии Уильяма Шекспира «Гамлет».


    Качество: HDRip
    Формат:AVI
    Видео кодек: XviD
    Аудио кодек:MP3
    Видео: XviD, 672x288 (2.35:1), 1157 kbps, 23,976 fps, 0,238 bpp
    Аудио: MP3 / 2.0 / 48 kHz / 128 kbps /

    Код:

    General
    Complete name                            : D:\Торенты\Haider.2014.HDRip.XviD.LDVO-soso4eg.avi
    Format                                   : AVI
    Format/Info                              : Audio Video Interleave
    File size                                : 1.46 GiB
    Duration                                 : 2h 41mn
    Overall bit rate                         : 1 295 Kbps
    Movie name                               : Haider.2014.HDRip.XviD.LDVO-soso4eg
    Director                                 : soso4eg
    Writing application                      : VirtualDubMod 1.5.10.3 | www.virtualdub-fr.org || (build 2550/release)
    Writing library                          : VirtualDubMod build 2550/release
    Original source form/Name                : Hindi
    Copyright                                : специально для BitTorrent трекер RuTracker.org (ex torrents.ru)
    Comment                                  : пер.LDVO (Колобок) по суб. Honey&Haseena

    Video
    ID                                       : 0
    Format                                   : MPEG-4 Visual
    Format profile                           : Advanced Simple@L5
    Format settings, BVOP                    : 2
    Format settings, QPel                    : No
    Format settings, GMC                     : No warppoints
    Format settings, Matrix                  : Default (MPEG)
    Codec ID                                 : XVID
    Codec ID/Hint                            : XviD
    Duration                                 : 2h 41mn
    Bit rate                                 : 1 107 Kbps
    Width                                    : 672 pixels
    Height                                   : 288 pixels
    Display aspect ratio                     : 2.35:1
    Frame rate                               : 23.976 fps
    Color space                              : YUV
    Chroma subsampling                       : 4:2:0
    Bit depth                                : 8 bits
    Scan type                                : Progressive
    Compression mode                         : Lossy
    Bits/(Pixel*Frame)                       : 0.238
    Stream size                              : 1.25 GiB (85%)
    Writing library                          : XviD 1.2.1 (UTC 2008-12-04)

    Audio
    ID                                       : 1
    Format                                   : MPEG Audio
    Format version                           : Version 1
    Format profile                           : Layer 3
    Mode                                     : Joint stereo
    Codec ID                                 : 55
    Codec ID/Hint                            : MP3
    Duration                                 : 2h 41mn
    Bit rate mode                            : Constant
    Bit rate                                 : 128 Kbps
    Channel(s)                               : 2 channels
    Sampling rate                            : 48.0 KHz
    Compression mode                         : Lossy
    Stream size                              : 148 MiB (10%)
    Alignment                                : Aligned on interleaves
    Writing library                          : LAME3.90.3


    Скриншоты:

    Каталог Новинок (Фильмы-трейлеры, Игры, Сериалы, Мультфильмы)

    © Оформление by Ворон
    freetor.icu



  • Скачать Хайдер через торрент https://pic1.kartinco.top/images/61/ordi9.jpg Скачать, смотреть онлайн Хайдер бесплантно в хорошем качестве Описание:Индийская адаптация трагедии Уильяма Шекспира ... 8.5 10 4
    Торрент: Зарегистрирован [2015-01-17 12:21] · скачан: 36 раз
    Статус: √ проверено
    Размер: 1.46 GB
    Как cкачать? Как скачать Хайдер через торрент | UTorrent

    % Раздел Тема Автор DL S | L
    Индийское кино [ 2.19 GB ] Хайдер / Haider [2014 HDRip [ICG] Ворон Скачать
    1 | 0
    Фильмы (Blu-ray, BD-Remux, HDDVD) [ 38.85 GB ] Хайдер / Haider [2014 BDRemux 1080p] DUB+DVO Ворон Скачать
    1 | 0
    Фильмы [HD 720p, 1080p] (Звук Cam, VO, DVO) [ 14.67 GB ] Хайдер / Haider [2014 BDRip 1080p Любительский [den904 DeadSno] Ворон Скачать
    1 | 0

    28-11-2019 20:33  

    Отключить всю рекламу на сайте

      Дорогой пользователь! Огромная просьба, поблагодарите релизера, оцените раздачу и оставьте свои комментарий, если Вы скачали Хайдер через торрент бесплатно!
      Комментировать посты могут только пользователи прошедшие не сложную регистрацию
      Показать сообщения:    

      Хайдер через торрент
      Скачать бесплатно Хайдер
      Хайдер скачать торрент
      Хайдер смотреть онлайн
      Cкачать фильм Хайдер бесплатно
      Хайдер скачать торрент в хорошем качестве
      Хайдер смотреть онлайн бесплатно в хорошем качестве


      Вы не можете начинать темы
      Вы не можете отвечать на сообщения
      Вы не можете редактировать свои сообщения
      Вы не можете удалять свои сообщения
      Вы не можете голосовать в опросах
      Вы не можете прикреплять файлы к сообщениям
      Вы можете скачивать файлы