>

5.6

iTunes

6.1

MVO

5.7

MVO

1

7.4

1 сезон

6.8

iTunes

7.2

1 сезон

13

6.7

1 сезон

8.3

RePack

30

Deluxe

pack

9.9

Лицензия

ВАЖНО

ИГРА 18+

pack

7.3

RePack

MK11

7.7

RePack

jed

7.8

RePack

fifa19

8.5

RePack

RDR2

RePack

NEED FOR SPEED™ PAYBACK

4 сезон

9 сезон

Бесстыжие 9 сезон

Все сериалы

все сериалы на PB.wtf

RePack

FAR CRY 5

Anonymous, добрый вечер, мы катастрофически не успеваем собрать деньги на оплату серверов, помогите нам пожалуйста 5,10,15р., для нас важна любая помощь . В качестве благодарности мы отключим Вам всю рекламу на сайте (укажите свой ник в строку Ваше имя)!

×
  
Magnet ссылка

Обожатели (Бес в ребро) / The Shaukeens (Абхишек Шарма ) [2014, комедия, DVDRip, Любительский (двухголосый)[den904, DeadSno] freetor.icu

Обожатели через торрент freetor.icu

Размер: 1.44 GB | Добавлен: 6 лет 8 мес. назад | Торрент скачан:42 раза
Смотреть онлайн Обожатели | Скачать    Ребята, помогите собрать деньги на оплату серверов!!!

17-01-2015 08:23 Обожатели Скачать торрент  


Обожатели (Бес в ребро) / The Shaukeens


Год выпуска:2014
Страна:Индия
Жанр:комедия
Продолжительность: 02:03:30
Перевод:Любительский (двухголосый)[den904, DeadSno]
Субтитры: Русские на песни
Режиссер:Абхишек Шарма
В ролях:

Акшай Кумар (Akshay Kumar), Лиза Хейдон (Ahana), Рати Агнихотри, Сайрус Броача, Yuvika Chaudhary, Субрата Дутта (Ranjit Basu), Гурав Гера, Manoj Joshi, Димпл Кападиа, Анну Капур, Карина Капур, Анупам Кхер
  • Описание:
    Шаукины, по-другому «обожатели» - это те люди, которые находят свой предмет обожания и могут сходить по нему с ума неопределённое количество времени. Именно так и происходит с тремя стариками, которые под старость лет понимают, что им не хватает драйва в жизни. В его поисках, они отправляются на остров Маврикий, где снимают дом у сногсшибательной красотки Аханы, которая по грустному стечению обстоятельств, остаётся жить со своими арендаторами. Шаукины узнают, что у обожаемой Аханы есть одна страсть - суперзвезда Акшай Кумар. Желая покорить сердце объекта страсти, ловеласы наперебой начинают устраивать ей свидания со своим кумиром….
    Техданные
    Релиз
    Скриншоты


    Качество: DVDRip
    Формат:MKV
    Видео кодек: XviD
    Аудио кодек:AC3
    Видео: XviD, 720x304 (2.35:1), 1255 kbps, 23,976 fps, 0,239 bpp
    Аудио: AC3 / 5.1 / 48 kHz / 384 kbps / 16 bit

    Код:

    General
    Unique ID                                : 227876578009800590974302294078971092231 (0xAB6F6EB9B83AA620923F3972B5FE9D07)
    Complete name                            : D:\Торенты\Обожатели.mkv
    Format                                   : Matroska
    Format version                           : Version 4 / Version 2
    File size                                : 1.44 GiB
    Duration                                 : 2h 3mn
    Overall bit rate                         : 1 672 Kbps
    Encoded date                             : UTC 2015-01-16 16:14:33
    Writing application                      : mkvmerge v7.2.0 ('On Every Street') 64bit built on Sep 13 2014 15:52:10
    Writing library                          : libebml v1.3.0 + libmatroska v1.4.1

    Video
    ID                                       : 1
    Format                                   : MPEG-4 Visual
    Format profile                           : Advanced Simple@L5
    Format settings, BVOP                    : Yes
    Format settings, QPel                    : No
    Format settings, GMC                     : No warppoints
    Format settings, Matrix                  : Custom
    Codec ID                                 : XVID
    Codec ID/Hint                            : XviD
    Duration                                 : 2h 3mn
    Bit rate                                 : 1 255 Kbps
    Width                                    : 720 pixels
    Height                                   : 304 pixels
    Display aspect ratio                     : 2.35:1
    Frame rate                               : 23.976 fps
    Color space                              : YUV
    Chroma subsampling                       : 4:2:0
    Bit depth                                : 8 bits
    Scan type                                : Progressive
    Compression mode                         : Lossy
    Bits/(Pixel*Frame)                       : 0.239
    Stream size                              : 1.08 GiB (75%)
    Writing library                          : XviD 1.2.1 (UTC 2008-12-04)
    Default                                  : Yes
    Forced                                   : No

    Audio
    ID                                       : 3
    Format                                   : AC-3
    Format/Info                              : Audio Coding 3
    Mode extension                           : CM (complete main)
    Codec ID                                 : A_AC3
    Duration                                 : 2h 3mn
    Bit rate mode                            : Constant
    Bit rate                                 : 384 Kbps
    Channel(s)                               : 6 channels
    Channel positions                        : Front: L C R, Side: L R, LFE
    Sampling rate                            : 48.0 KHz
    Bit depth                                : 16 bits
    Compression mode                         : Lossy
    Stream size                              : 339 MiB (23%)
    Default                                  : Yes
    Forced                                   : No

    Text
    ID                                       : 2
    Format                                   : UTF-8
    Codec ID                                 : S_TEXT/UTF8
    Codec ID/Info                            : UTF-8 Plain Text
    Default                                  : Yes
    Forced                                   : No


    Скриншоты:

    Каталог Новинок (Фильмы-трейлеры, Игры, Сериалы, Мультфильмы)

    © Оформление by Ворон
    freetor.icu



  • Скачать Обожатели через торрент https://pic1.kartinco.top/images/61/ordi9.jpg Скачать, смотреть онлайн Обожатели бесплантно в хорошем качестве Описание:Шаукины, по-другому «обожатели» - это те люди, которые находят свой предмет обожания и могут сходить по нему с ума неопределённое ... 10 10 3
    Торрент: Зарегистрирован [2015-01-17 08:23] · скачан: 42 раз
    Статус: √ проверено
    Размер: 1.44 GB
    Как cкачать? Как скачать Обожатели через торрент | UTorrent

    28-11-2019 20:33  

    Отключить всю рекламу на сайте

      Дорогой пользователь! Огромная просьба, поблагодарите релизера, оцените раздачу и оставьте свои комментарий, если Вы скачали Обожатели через торрент бесплатно!
      Комментировать посты могут только пользователи прошедшие не сложную регистрацию
      Показать сообщения:    

      Обожатели через торрент
      Скачать бесплатно Обожатели
      Обожатели скачать торрент
      Обожатели смотреть онлайн
      Cкачать фильм Обожатели бесплатно
      Обожатели скачать торрент в хорошем качестве
      Обожатели смотреть онлайн бесплатно в хорошем качестве


      Вы не можете начинать темы
      Вы не можете отвечать на сообщения
      Вы не можете редактировать свои сообщения
      Вы не можете удалять свои сообщения
      Вы не можете голосовать в опросах
      Вы не можете прикреплять файлы к сообщениям
      Вы можете скачивать файлы