Anonymous, доброй ночи, присоединяйтесь к нам в Telegram!, здесь всегда актуальный адрес сайта, оперативная поддержка и многое другое!

>

5.6

iTunes

7.4

MVO

5.7

MVO

1

7.7

1 сезон

6.8

iTunes

7.3

1 сезон

13

6.7

1 сезон

8.3

RePack

30

ULTIMATE

pack

9.9

Лицензия

ВАЖНО

ИГРА 18+

pack

7.3

RePack

MK11

7.7

RePack

jed

7.8

RePack

fifa19

8.5

RePack

RDR2

RePack

NEED FOR SPEED™ PAYBACK

4 сезон

9 сезон

Бесстыжие 9 сезон

Все сериалы

все сериалы на PB.wtf

RePack

FAR CRY 5

Anonymous, доброй ночи, мы катастрофически не успеваем собрать деньги на оплату серверов, помогите нам пожалуйста 5,10,15р., для нас важна любая помощь . В качестве благодарности мы отключим Вам всю рекламу на сайте (укажите свой ник в строку Ваше имя)!

×
  
Magnet ссылка

Долгий путь в лабиринте (мини-сериал) / Серии 1-3 из 3 (Василий Левин) [1981, СССР, военный, DVDRip) freetor.icu

Долгий путь в лабиринте через торрент freetor.icu

Размер: 2.35 GB | Добавлен: 6 лет 9 мес. назад | Торрент скачан:82 раза
Смотреть онлайн Долгий путь в лабиринте | Скачать    Ребята, помогите собрать деньги на оплату серверов!!!

28-12-2014 03:27 Долгий путь в лабиринте Скачать торрент  

Долгий путь в лабиринте


  • Год выпуска: 1981
  • Страна: СССР
  • Жанр: военный
  • Продолжительность: 01:03:46 (Серия)
  • Перевод: Не требуется

  • Режиссер: Василий Левин
  • В ролях:

    Татьяна Лебедева (Саша Сизова), Эммануил Виторган (Иван Шагин), Сергей Десницкий (Кузьмич), Константин Степанков (Микола Терентьевич Ящук), Всеволод Абдулов (Мартын Лацис), Виктор Древицкий (Олесь Гроха), Игорь Васильев (Константин Лелека), Михаил Голубович (Сергей Чёрный), Александр Голобородько (Шерстев), Анатолий Ромашин (Станислав Оттович Белявский), Алла Будницкая (Стефания Белявская), Клавдия Моисеева (Галина)

  • Описание:
    Герои фильма - чекисты Саша Сизова и Шагин вывозят из захваченного белогвардейцами города конфискованные драгоценности и доставляют их в Киев. Вернувшись в освобожденный Красной Армией город, они разоблачают агента белогвардейцев, проникшего в ЧК, и принимают активное участие в разгроме банды полковника Шерстева.
  • Рейтинг:



  • Качество: DVDRip
  • Формат: :AVI
  • Видео кодек: XviD
  • Аудио кодек: MP3
  • Видео: 720x480 (3:2), 1498 kbps, 25 fps, 0,173 bpp
  • Аудио: 2.0 / 48 kHz / 192 kbps
  • Релиз от: GEKADOL

    Код:

    General
    Complete name                            : I:\Dolgij put v labirinte\Dolgij put v labirinte 3.avi
    Format                                   : AVI
    Format/Info                              : Audio Video Interleave
    File size                                : 777 MiB
    Duration                                 : 1h 3mn
    Overall bit rate                         : 1 703 Kbps

    Video
    ID                                       : 0
    Format                                   : MPEG-4 Visual
    Format profile                           : Simple@L3
    Format settings, BVOP                    : No
    Format settings, QPel                    : No
    Format settings, GMC                     : No warppoints
    Format settings, Matrix                  : Default (H.263)
    Codec ID                                 : XVID
    Codec ID/Hint                            : XviD
    Duration                                 : 1h 3mn
    Bit rate                                 : 1 498 Kbps
    Width                                    : 720 pixels
    Height                                   : 480 pixels
    Display aspect ratio                     : 3:2
    Frame rate                               : 25.000 fps
    Standard                                 : NTSC
    Color space                              : YUV
    Chroma subsampling                       : 4:2:0
    Bit depth                                : 8 bits
    Scan type                                : Progressive
    Compression mode                         : Lossy
    Bits/(Pixel*Frame)                       : 0.173
    Stream size                              : 684 MiB (88%)
    Writing library                          : XviD 1.1.0 Beta2 (UTC 2005-04-04)

    Audio
    ID                                       : 1
    Format                                   : MPEG Audio
    Format version                           : Version 1
    Format profile                           : Layer 3
    Mode                                     : Joint stereo
    Mode extension                           : MS Stereo
    Codec ID                                 : 55
    Codec ID/Hint                            : MP3
    Duration                                 : 1h 3mn
    Source duration                          : 1h 3mn
    Bit rate mode                            : Constant
    Bit rate                                 : 192 Kbps
    Channel(s)                               : 2 channels
    Sampling rate                            : 48.0 KHz
    Compression mode                         : Lossy
    Stream size                              : 87.6 MiB (11%)
    Alignment                                : Aligned on interleaves
    Interleave, duration                     : 24 ms (0.60 video frame)
    Interleave, preload duration             : 24 ms


    Скриншоты:



    freetor.icu



  • Скачать Долгий путь в лабиринте через торрент http://i64.fastpic.ru/big/2014/1228/a4/845121894ec1c0d07ce6b288f1dc5fa4.jpg Скачать, смотреть онлайн Долгий путь в лабиринте бесплантно в хорошем качестве Описание: Герои фильма - чекисты Саша Сизова и Шагин вывозят из захваченного белогвардейцами города конфискованные драгоценности и ... 10 10 2
    Info! Золотая раздача, скачанное не засчитывается.
    Торрент: Зарегистрирован [2014-12-28 03:27] · скачан: 82 раз
    Статус: √ проверено
    Размер: 2.35 GB
    Как cкачать? Как скачать Долгий путь в лабиринте через торрент | UTorrent

    28-11-2019 20:33  

    Отключить всю рекламу на сайте

      Дорогой пользователь! Огромная просьба, поблагодарите релизера, оцените раздачу и оставьте свои комментарий, если Вы скачали Долгий путь в лабиринте через торрент бесплатно!
      Комментировать посты могут только пользователи прошедшие не сложную регистрацию
      Показать сообщения:    

      Долгий путь в лабиринте через торрент
      Скачать бесплатно Долгий путь в лабиринте
      Долгий путь в лабиринте скачать торрент
      Долгий путь в лабиринте смотреть онлайн
      Cкачать фильм Долгий путь в лабиринте бесплатно
      Долгий путь в лабиринте скачать торрент в хорошем качестве
      Долгий путь в лабиринте смотреть онлайн бесплатно в хорошем качестве


      Вы не можете начинать темы
      Вы не можете отвечать на сообщения
      Вы не можете редактировать свои сообщения
      Вы не можете удалять свои сообщения
      Вы не можете голосовать в опросах
      Вы не можете прикреплять файлы к сообщениям
      Вы можете скачивать файлы