>

8.4

Хороший звук

6.1

MVO

6.4

Line & MVO

1

7.4

1 сезон

6.8

iTunes

7.2

1 сезон

13

6.7

1 сезон

8.3

RePack

30

Deluxe

pack

9.9

Лицензия

ВАЖНО

ИГРА 18+

pack

7.3

RePack

MK11

7.7

RePack

jed

7.8

RePack

fifa19

8.5

RePack

RDR2

RePack

NEED FOR SPEED™ PAYBACK

4 сезон

9 сезон

Бесстыжие 9 сезон

Все сериалы

все сериалы на PB.wtf

RePack

FAR CRY 5

Anonymous, доброе утро, мы катастрофически не успеваем собрать деньги на оплату серверов, помогите нам пожалуйста 5,10,15р., для нас важна любая помощь . В качестве благодарности мы отключим Вам всю рекламу на сайте (укажите свой ник в строку Ваше имя)!

×
  
Magnet ссылка

Разоблачение / The Xpose (Анант Махадеван ) [2014, Триллер, детектив, DVDRip, Любительский (двухголосый)[den904, DeadSno] freetor.icu

Разоблачение через торрент freetor.icu

Размер: 1.46 GB | Добавлен: 6 лет 8 мес. назад | Торрент скачан:9 раз
Смотреть онлайн Разоблачение | Скачать    Ребята, помогите собрать деньги на оплату серверов!!!

19-12-2014 05:26 Разоблачение Скачать торрент  

Разоблачение / The Xpose

Год выпуска: 2014
Страна: Индия
Жанр: Триллер, детектив
Продолжительность: 01:53:06
Перевод: Любительский (двухголосый)[den904, DeadSno]
Субтитры: Русские на песни
Режиссер: Анант Махадеван
В ролях: Химеш Решаммия (Ravi Kumar), Ё Ё Хони Сингх (Kenny Damania), Ирфан Кхан (Alec D'Costa), Zoya Afroz (Chandni), Адиль Хуссэйн (Rajan Anna), Анант Махадеван, Бхарат Дабхолкар, Джесси Рандхава, Накул, Каника Данг, Нареш Сури, Дайя Шанкар Пандеу
Описание:
1968 год. Бомбей. В огромном и шикарном дворце в самом разгаре идёт вечеринка, посвященная награждению в кинематографе. Здесь гуляют самые популярные секс-символы и звёзды шестидесятых. Внезапно, сообщают о падении с террасы дворца скандальной актрисы - Зары Питер Фернандес, что подвергает в шок всех присутствующих гостей. Начинается расследование. За него берётся Рави Кумар, бывший полицейский, а ныне - суперзвезда южных фильмов. Но как говорится, бывших копов не бывает. Было ли это убийством или всё-таки простым несчастным случаем? Разоблачение ждёт каждого, который хоть как-то повлиял на эту историю…
Рейтинг:

Качество: DVDRip
Формат: AVI
Видео кодек: XviD
Аудио кодек:AC3
Видео: XviD, 720x304 (2.35:1), 1382 kbps, 23,976 fps, 0,264 bpp
Аудио №1: AC3 / 5.1 / 48 kHz / 256 kbps / Русский
Аудио №2: AC3 / 2.0 / 48 kHz / 192 kbps / Индийский

Код:

General
Complete name                            : D:\Торенты\The.Xpose.DVDRip.1500mb\The.Xpose.DVDRip.1500mb.avi
Format                                   : AVI
Format/Info                              : Audio Video Interleave
File size                                : 1.46 GiB
Duration                                 : 1h 53mn
Overall bit rate                         : 1 845 Kbps
Director                                 : TmG
Writing application                      : VirtualDubModRus 1.5.10.2 (build 2542/release)
Writing library                          : VirtualDubMod build 2542/release

Video
ID                                       : 0
Format                                   : MPEG-4 Visual
Format profile                           : Advanced Simple@L5
Format settings, BVOP                    : 2
Format settings, QPel                    : No
Format settings, GMC                     : No warppoints
Format settings, Matrix                  : Default (H.263)
Codec ID                                 : XVID
Codec ID/Hint                            : XviD
Duration                                 : 1h 53mn
Bit rate                                 : 1 383 Kbps
Width                                    : 720 pixels
Height                                   : 304 pixels
Display aspect ratio                     : 2.35:1
Frame rate                               : 23.976 fps
Color space                              : YUV
Chroma subsampling                       : 4:2:0
Bit depth                                : 8 bits
Scan type                                : Progressive
Compression mode                         : Lossy
Bits/(Pixel*Frame)                       : 0.264
Stream size                              : 1.09 GiB (75%)
Writing library                          : XviD 1.2.1 (UTC 2008-12-04)

Audio #1
ID                                       : 1
Format                                   : AC-3
Format/Info                              : Audio Coding 3
Mode extension                           : CM (complete main)
Codec ID                                 : 2000
Duration                                 : 1h 53mn
Bit rate mode                            : Constant
Bit rate                                 : 256 Kbps
Channel(s)                               : 6 channels
Channel positions                        : Front: L C R, Side: L R, LFE
Sampling rate                            : 48.0 KHz
Bit depth                                : 16 bits
Compression mode                         : Lossy
Stream size                              : 207 MiB (14%)
Alignment                                : Split accross interleaves
Interleave, duration                     : 42 ms (1.00 video frame)
Interleave, preload duration             : 500 ms

Audio #2
ID                                       : 2
Format                                   : AC-3
Format/Info                              : Audio Coding 3
Mode extension                           : CM (complete main)
Codec ID                                 : 2000
Duration                                 : 1h 53mn
Bit rate mode                            : Constant
Bit rate                                 : 192 Kbps
Channel(s)                               : 2 channels
Channel positions                        : Front: L R
Sampling rate                            : 48.0 KHz
Bit depth                                : 16 bits
Compression mode                         : Lossy
Stream size                              : 155 MiB (10%)
Alignment                                : Split accross interleaves
Interleave, duration                     : 42 ms (1.00 video frame)
Interleave, preload duration             : 500 ms

freetor.icu



Скачать Разоблачение через торрент http://i67.fastpic.ru/big/2014/1219/32/861c2c86dba90109712b8e6110d1ff32.jpg Скачать, смотреть онлайн Разоблачение бесплантно в хорошем качестве Описание: 1968 год. Бомбей. В огромном и шикарном дворце в самом разгаре идёт вечеринка, посвященная награждению в кинематографе. Здесь ... 10 10 1
Торрент: Зарегистрирован [2014-12-19 05:26] · скачан: 9 раз
Статус: √ проверено
Размер: 1.46 GB
Как cкачать? Как скачать Разоблачение через торрент | UTorrent

28-11-2019 20:33  

Отключить всю рекламу на сайте

    Дорогой пользователь! Огромная просьба, поблагодарите релизера, оцените раздачу и оставьте свои комментарий, если Вы скачали Разоблачение через торрент бесплатно!
    Комментировать посты могут только пользователи прошедшие не сложную регистрацию
    Показать сообщения:    

    Разоблачение через торрент
    Скачать бесплатно Разоблачение
    Разоблачение скачать торрент
    Разоблачение смотреть онлайн
    Cкачать фильм Разоблачение бесплатно
    Разоблачение скачать торрент в хорошем качестве
    Разоблачение смотреть онлайн бесплатно в хорошем качестве


    Вы не можете начинать темы
    Вы не можете отвечать на сообщения
    Вы не можете редактировать свои сообщения
    Вы не можете удалять свои сообщения
    Вы не можете голосовать в опросах
    Вы не можете прикреплять файлы к сообщениям
    Вы можете скачивать файлы