>

5.6

iTunes

6.1

MVO

5.7

MVO

1

7.4

1 сезон

6.8

iTunes

7.2

1 сезон

13

6.7

1 сезон

8.3

RePack

30

Deluxe

pack

9.9

Лицензия

ВАЖНО

ИГРА 18+

pack

7.3

RePack

MK11

7.7

RePack

jed

7.8

RePack

fifa19

8.5

RePack

RDR2

RePack

NEED FOR SPEED™ PAYBACK

4 сезон

9 сезон

Бесстыжие 9 сезон

Все сериалы

все сериалы на PB.wtf

RePack

FAR CRY 5

Anonymous, добрый день, мы катастрофически не успеваем собрать деньги на оплату серверов, помогите нам пожалуйста 5,10,15р., для нас важна любая помощь . В качестве благодарности мы отключим Вам всю рекламу на сайте (укажите свой ник в строку Ваше имя)!

×
  
Magnet ссылка

Коммандо / Commando (Дилип Гхош) [2013 г., Боевик, HDRip, Любительский многоголосый] freetor.icu

Коммандо через торрент freetor.icu

Размер: 2.06 GB | Добавлен: 6 лет 9 мес. назад | Торрент скачан:140 раз
Смотреть онлайн Коммандо | Скачать    Ребята, помогите собрать деньги на оплату серверов!!!

12-12-2014 19:55 Коммандо Скачать торрент  

Коммандо / Commando
Год выпуска: 2013
Страна: Индия
Жанр: Боевик
Продолжительность: 02:04:35
Перевод: Любительский многоголосый (IndianCinemaGroup)

Режиссер: Дилип Гхош
Продюссер: Випул Амрутал Шах, А. Шах Аашин
Сценарий: Ритеш Шах

Премьера в мире: 11 апреля 2013






Видьют Джамвал, Джайдип Ахлават, Сукхвиндер Чахал, Пуджа Чопра, Даршан Джаривала, Ом Пракаш



Десантная рота индийской армии во главе с командиром, капитаном Каранвиром Догра, терпит крушение на китайской стороне границы. Каранвир оказывается не в состоянии убедить китайских военных в своих честных намерениях, так как они не нашли обломков самолёта. Он понимает, что его могут объявить шпионом и использовать этот предлог против индийского правительства. Индийское правительство посчитало, что при таких обстоятельствах китайцы не будут принимать никаких доказательств о том, что это был обычный тренировочный полёт, поэтому они уничтожают армейские документы Карана и просто отрицают его существование. Не дожидаясь приговора, Каран сбегает от китайцев, переходит границу в районе северного индийского штата Химачал-Прадеш, проходит через округ Киннаур, чтобы попасть на свою базу в Патханкоте (Пенджаб). На Химачал-Пенджабской границе, он встречает девушку Симрит…



Качество:HDRip
Формат: AVI
Видео кодек: XviD
Аудио кодек: AC3
Видео: 1 907 кбит/сек 720*304(2,35:1) 23 976 кадр/сек, MPEG-4 Visual (XviD)
Аудио#1: 448 кбит/сек,48,0 КГц, АС-3 (6 каналов)

Коммандо скачать торрент



скриншот   скриншот   скриншот   скриншот   скриншот  





E:\VIDEO\Commando.2013.HDRip..avi
General
Complete name : E:\VIDEO\Commando.2013.HDRip..avi
Format : AVI
Format/Info : Audio Video Interleave
Format profile : OpenDML
File size : 2.06 GiB
Duration : 2h 4mn
Overall bit rate : 2 368 Kbps
Writing application : VirtualDubModRus 1.5.10.2 (build 2542/release)
Writing library : VirtualDubMod build 2542/release
Video
Format : MPEG-4 Visual
Format profile : Streaming Video@L1
Format settings, BVOP : Yes
Format settings, QPel : No
Format settings, GMC : No warppoints
Format settings, Matrix : Custom
Codec ID : XVID
Codec ID/Hint : XviD
Duration : 2h 4mn
Bit rate : 1 907 Kbps
Width : 720 pixels
Height : 304 pixels
Display aspect ratio : 2.35
Frame rate : 23.976 fps
Resolution : 24 bits
Colorimetry : 4:2:0
Scan type : Progressive
Bits/(Pixel*Frame) : 0.363
Stream size : 1.66 GiB (81%)
Writing library : XviD 50
Audio
Format : AC-3
Format/Info : Audio Coding 3
Codec ID : 2000
Duration : 2h 4mn
Bit rate mode : Constant
Bit rate : 448 Kbps
Channel(s) : 6 channels
Channel positions : Front: L C R, Surround: L R, LFE
Sampling rate : 48.0 KHz
Stream size : 399 MiB (19%)
Alignment : Split accross interleaves
Interleave, duration : 42 ms (1.00 video frame)
Interleave, preload duration : 500 ms
Title : Russian


freetor.icu



Скачать Коммандо через торрент https://pic1.kartinco.top/images/81/qohnv.jpg Скачать, смотреть онлайн Коммандо бесплантно в хорошем качестве Год выпуска: 2013Страна: ИндияЖанр: БоевикПродолжительность: 02:04:35Перевод: (IndianCinemaGroup) Режиссер: Дилип ... 9.7 10 11
Торрент: Зарегистрирован [2014-12-12 19:55] · скачан: 140 раз
Статус: √ проверено
Размер: 2.06 GB
Как cкачать? Как скачать Коммандо через торрент | UTorrent

% Раздел Тема Автор DL S | L
Зарубежные сериалы [ 17.51 GB ] Коммандос / Commandos / Сезон: 1 / Серии: 1-10 из 10 [2020 WEB-DL 1080p] MVO [IVI] bober100 Скачать
5 | 0
Фильмы (HD 720p, 1080p) (48-60 fps) [ 10.18 GB ] Коммандос / Commando [1985 BDRip 1080p / 60 FPS многоголосый] Tiberiumsun69 Скачать
1 | 0
Фильмы (WEB-DL 720p, 1080p) [ 9.07 GB ] Коммандо из пригорода / Suburban Commando [1991 WEB-DL 1080p] AVO+2xMVO+2xDVO bober100 Скачать
1 | 0
Фильмы с авторской озвучкой [ 1.46 GB ] Коммандо / Commando [1985 BDRip Авторский ] 666gtr666 Скачать
1 | 0
Фильмы с авторской озвучкой [ 1.47 GB ] Коммандо / Commando [1985 BDRip] [Режиссёрская версия / Director's cut] [AVO] killermax2013 Скачать
1 | 0
Фильмы до 2000 г. [ 2.31 GB ] Коммандо / Commando [1985 BDRip] [Director's Cut] [MVO] + 2x[AVO] killermax2013 Скачать
1 | 0
Фильмы до 2000 г. [ 1.45 GB ] Коммандо из пригорода / Suburban Commando [1991 WEB-DLRip] MVO AVO koenig Скачать
1 | 0

28-11-2019 20:33  

Отключить всю рекламу на сайте

12-12-2014 21:11 Коммандо Скачать торрент  

качаю что б поржать , забавно у них бои ставятся ))freetor.icu



    Дорогой пользователь! Огромная просьба, поблагодарите релизера, оцените раздачу и оставьте свои комментарий, если Вы скачали Коммандо через торрент бесплатно!
    Комментировать посты могут только пользователи прошедшие не сложную регистрацию
    Показать сообщения:    

    Коммандо через торрент
    Скачать бесплатно Коммандо
    Коммандо скачать торрент
    Коммандо смотреть онлайн
    Cкачать фильм Коммандо бесплатно
    Коммандо скачать торрент в хорошем качестве
    Коммандо смотреть онлайн бесплатно в хорошем качестве


    Вы не можете начинать темы
    Вы не можете отвечать на сообщения
    Вы не можете редактировать свои сообщения
    Вы не можете удалять свои сообщения
    Вы не можете голосовать в опросах
    Вы не можете прикреплять файлы к сообщениям
    Вы можете скачивать файлы