>

5.6

iTunes

6.1

MVO

5.7

MVO

1

7.4

1 сезон

6.8

iTunes

7.2

1 сезон

13

6.7

1 сезон

8.3

RePack

30

Deluxe

pack

9.9

Лицензия

ВАЖНО

ИГРА 18+

pack

7.3

RePack

MK11

7.7

RePack

jed

7.8

RePack

fifa19

8.5

RePack

RDR2

RePack

NEED FOR SPEED™ PAYBACK

4 сезон

9 сезон

Бесстыжие 9 сезон

Все сериалы

все сериалы на PB.wtf

RePack

FAR CRY 5

Anonymous, добрый день, мы катастрофически не успеваем собрать деньги на оплату серверов, помогите нам пожалуйста 5,10,15р., для нас важна любая помощь . В качестве благодарности мы отключим Вам всю рекламу на сайте (укажите свой ник в строку Ваше имя)!

×
  
Magnet ссылка

Один / 1 - Nenokkadine (Сукумар / Sukumar) [2014, Индия, Боевик, триллер, мелодрама, WEB-DLRip] MVO- ICG + Original + Sub Rus freetor.icu

Один через торрент freetor.icu

Размер: 2.19 GB | Добавлен: 6 лет 9 мес. назад | Торрент скачан:75 раз
Смотреть онлайн Один | Скачать    Ребята, помогите собрать деньги на оплату серверов!!!

06-12-2014 12:05 Один Скачать торрент  


Один / 1 - Nenokkadine


Год выпуска:2014
Страна: Индия
Жанр:боевик, триллер
Продолжительность:02:44:31
Перевод:Любительский многоголосый- ICG
Cубтитры: Pусские (полные, песни)внешние
Режиссер:Сукумар

  • В ролях:

    Махеш Бабу (Gautham (Rockstar)), Крити Санон (Samira (Journalist)), Нассер, Прадип Рават, Ану Хассан (Kalyani), Келли Дорджи (Antonio Rosarius), Саяджи Шинде (John Baasha), Кришна Мурали Посани (Gulab Singh), Шриниваса Редди (Police Constable), Рави Верма (Michael), Ананд (Chandra Sekhar (Gautham's Father)), Супритх Редди
  • Описание:
    Гаутам рос один, без родителей. Попал в детский дом. Потом стал рок-звездой. И казалось бы, у него есть все, что он хочет, но ничто не может компенсировать отсутствие в его жизни родителей. А еще давнишние воспоминания лезут наружу - три мужчины, которые виновны в том, что Гаутам сирота. И он решает найти бандитов, чтобы узнать о своем прошлом, о том, кем были его родители, и в противном случае отомстить за их смерть. Но он и не подозревает, что главный бой придется провести с самим собой.

  • Мировая премьера:10 января 2014

    Качество: WEB-DLRip
    Формат:AVI
    Видео кодек: XviD
    Аудио кодек:AC3
    Видео: XviD, 720x304 (2.35:1), 1215 kbps, 24 fps, 0,231 bpp
    Аудио №1: AC3 / 5.1 / 48 kHz / 448 kbps / [Rus]
    Аудио №2: AC3 / 2.0 / 48 kHz / 224 kbps /[Telugu]


    Код:

    General
    Complete name                            : D:\Торенты\1-Nenokkadine.2014.WEB-DLRip.Rus.Original.ICG.GF\1-Nenokkadine.2014.WEB-DLRip.Rus.Original.ICG.GF.avi
    Format                                   : AVI
    Format/Info                              : Audio Video Interleave
    Format profile                           : OpenDML
    File size                                : 2.19 GiB
    Duration                                 : 2h 44mn
    Overall bit rate                         : 1 906 Kbps
    Writing application                      : VirtualDubModRus 1.5.10.2 (build 2542/release)
    Writing library                          : VirtualDubMod build 2542/release

    Video
    ID                                       : 0
    Format                                   : MPEG-4 Visual
    Format profile                           : Advanced Simple@L5
    Format settings, BVOP                    : 1
    Format settings, QPel                    : No
    Format settings, GMC                     : No warppoints
    Format settings, Matrix                  : Default (MPEG)
    Codec ID                                 : XVID
    Codec ID/Hint                            : XviD
    Duration                                 : 2h 44mn
    Bit rate                                 : 1 216 Kbps
    Width                                    : 720 pixels
    Height                                   : 304 pixels
    Display aspect ratio                     : 2.35:1
    Frame rate                               : 24.000 fps
    Color space                              : YUV
    Chroma subsampling                       : 4:2:0
    Bit depth                                : 8 bits
    Scan type                                : Progressive
    Compression mode                         : Lossy
    Bits/(Pixel*Frame)                       : 0.231
    Stream size                              : 1.40 GiB (64%)
    Writing library                          : XviD 64

    Audio #1
    ID                                       : 1
    Format                                   : AC-3
    Format/Info                              : Audio Coding 3
    Mode extension                           : CM (complete main)
    Codec ID                                 : 2000
    Duration                                 : 2h 44mn
    Bit rate mode                            : Constant
    Bit rate                                 : 448 Kbps
    Channel(s)                               : 6 channels
    Channel positions                        : Front: L C R, Side: L R, LFE
    Sampling rate                            : 48.0 KHz
    Bit depth                                : 16 bits
    Compression mode                         : Lossy
    Stream size                              : 527 MiB (24%)
    Alignment                                : Split accross interleaves
    Interleave, duration                     : 42 ms (1.00 video frame)
    Interleave, preload duration             : 500 ms

    Audio #2
    ID                                       : 2
    Format                                   : AC-3
    Format/Info                              : Audio Coding 3
    Mode extension                           : CM (complete main)
    Codec ID                                 : 2000
    Duration                                 : 2h 44mn
    Bit rate mode                            : Constant
    Bit rate                                 : 224 Kbps
    Channel(s)                               : 2 channels
    Channel positions                        : Front: L R
    Sampling rate                            : 48.0 KHz
    Bit depth                                : 16 bits
    Compression mode                         : Lossy
    Stream size                              : 264 MiB (12%)
    Alignment                                : Aligned on interleaves
    Interleave, duration                     : 42 ms (1.00 video frame)
    Interleave, preload duration             : 512 ms

    Скриншоты:

    Срочно! Нужна помощь! Жмите

    © Оформление by Ворон
    freetor.icu



  • Скачать Один через торрент https://pic1.kartinco.top/images/61/ordi9.jpg Скачать, смотреть онлайн Один бесплантно в хорошем качестве Описание:Гаутам рос один, без родителей. Попал в детский дом. Потом стал рок-звездой. И казалось бы, у него есть все, что он хочет, но ... 9.3 10 6
    Торрент: Зарегистрирован [2014-12-06 12:05] · скачан: 75 раз
    Статус: √ проверено
    Размер: 2.19 GB
    Как cкачать? Как скачать Один через торрент | UTorrent

    28-11-2019 20:33  

    Отключить всю рекламу на сайте

    06-12-2014 13:22 Один Скачать торрент  

    надо глянуть-меняются с годами индийские герои-пропали пухлые красавицы-теперь все больше с конкурсов красоты-вместо пузатой всякой династии капуров и чакрабортев всяких возникают какието мужественные качки-короче-болливуд жжетfreetor.icu



    06-12-2014 13:25 Один Скачать торрент  

    а вооще-очень понравился всей семье-индийский фантастик боевик-МУХАfreetor.icu



    06-12-2014 13:52 Один Скачать торрент  

    sasha1966 писал(а):

    вместо пузатой всякой династии капуров и чакрабортев всяких возникают какието мужественные качки

    а ну кыш - не припомню, чтобы Митхуны и Раджи "пузатые" были, в своё время они "кОчками" были ещё ого-го какими.
    "а эти кубики лечить надо" (старый анекдот 1990-х)freetor.icu



      Дорогой пользователь! Огромная просьба, поблагодарите релизера, оцените раздачу и оставьте свои комментарий, если Вы скачали Один через торрент бесплатно!
      Комментировать посты могут только пользователи прошедшие не сложную регистрацию
      Показать сообщения:    

      Один через торрент
      Скачать бесплатно Один
      Один скачать торрент
      Один смотреть онлайн
      Cкачать фильм Один бесплатно
      Один скачать торрент в хорошем качестве
      Один смотреть онлайн бесплатно в хорошем качестве


      Вы не можете начинать темы
      Вы не можете отвечать на сообщения
      Вы не можете редактировать свои сообщения
      Вы не можете удалять свои сообщения
      Вы не можете голосовать в опросах
      Вы не можете прикреплять файлы к сообщениям
      Вы можете скачивать файлы