Anonymous, доброй ночи, присоединяйтесь к нам в Telegram!, здесь всегда актуальный адрес сайта, оперативная поддержка и многое другое!

>

5.6

iTunes

7.4

MVO

5.7

MVO

1

7.7

1 сезон

6.8

iTunes

7.3

1 сезон

13

6.7

1 сезон

8.3

RePack

30

ULTIMATE

pack

9.9

Лицензия

ВАЖНО

ИГРА 18+

pack

7.3

RePack

MK11

7.7

RePack

jed

7.8

RePack

fifa19

8.5

RePack

RDR2

RePack

NEED FOR SPEED™ PAYBACK

4 сезон

9 сезон

Бесстыжие 9 сезон

Все сериалы

все сериалы на PB.wtf

RePack

FAR CRY 5

Anonymous, доброй ночи, мы катастрофически не успеваем собрать деньги на оплату серверов, помогите нам пожалуйста 5,10,15р., для нас важна любая помощь . В качестве благодарности мы отключим Вам всю рекламу на сайте (укажите свой ник в строку Ваше имя)!

×
  
Magnet ссылка

Государственная граница (Полная версия) / Серии 1-16 ( 2 х 8)(Б.Степанов, В.Никифоров, Г.Иванов) [1980-88 г., военный, история, приключения, DVDRip-AVC] freetor.icu

Государственная граница через торрент freetor.icu

Размер: 19.68 GB | Добавлен: 6 лет 10 мес. назад | Торрент скачан:132 раза
Смотреть онлайн Государственная граница | Скачать    Ребята, помогите собрать деньги на оплату серверов!!!

20-11-2014 15:11 Государственная граница Скачать торрент  

Государственная граница
Год выпуска: 1980 - 1988
Страна: СССР
Жанр: военный, история, приключения
Продолжительность: ~ 01:00:00

Режиссер: Б.Степанов, В.Никифоров, Г.Иванов



В ролях:
Фильм 1: Игорь Старыгин, Марина Дюжева, Вия Артмане, Аристарх Ливанов, Эрнст Романов
Фильм 2: Михаил Козаков, Анна Каменкова, Александр Денисов
Фильм 3: Аристарх Ливанов, Валентина Титова, Юрий Катин-Ярцев, Эдуард Марцевич
Фильм 4: Августин Милованов, Александр Денисов, Надежда Бутырцева Фильм 5: Арчил Гомиашвили, Евгений Леонов-Гладышев, Марина Левтова
Фильм 5: Арчил Гомиашвили, Евгений Леонов-Гладышев, Марина Левтова
Фильм 6: Геннадий Корольков, Лидия Вележева, Тимофей Спивак
Фильм 7: Гедиминас Гирдвайнис, Федор Сухов, Витаутас Томкус
Фильм 8: Сергей Мартынов, Андрей Алешин, Наталья Лапина

Описание:
Фильм 1: Действие фильма происходит в 1917 году. В молодой республике Советов принимается декрет о границах и создании пограничной службы. Фильм рассказывает о борьбе первых советских пограничников с незаконным вывозом ценностей.
Фильм 2: Действие фильма происходит на советско-польской границе. Советские пограничники пресекают попытки мятежей и набегов на приграничные города и села белополяков и банд из остатков белогвардейских войск.
Фильм 3: Год 1929. Фильм рассказывает о становлении пограничных войск на Дальнем Востоке и о борьбе с контрреволюционными силами управляемыми из-за рубежа.
Фильм 4: Действие фильма разворачивается в 30-е годы в Средней Азии и повествует о борьбе пограничников с басмачами и охране границы на дальних южных рубежах нашей Родины.
Фильм 5: Фильм повествует о последних мирных днях перед Великой Отечественной войной и первых боях с немецкими захватчиками. Напряжена до предела обстановка на границе, бесконечные провокации со стороны фашистов. Героическая оборона рубежей СССР в первые дни войны, судьба пограничников, первыми вступившими в бой с фашистами.
Фильм 6: Война закончена, но пограничники продолжают бороться с бандами, оставленными фашистскими оккупантами для организации диверсий.
Фильм 7: 60-е годы – годы холодной войны. Западные разведслужбы делают попытки проникновения шпионов на Советскую территорию. Фильм рассказывает о службе пограничников в Прибалтике.
Фильм 8: Годы 70-е. Советские пограничники пресекают попытки западных спецслужб получить важную секретную информацию


Доп. информация:
Каждый фильм : две серии
Съемки каждого фильма занимали один год.

Рип подготовил: Zarraza
Качество: DVDRip-AVC
Формат: MKV
Видео кодек: AVC
Аудио кодек: AC3
Видео: 704x528 (4:3), 25.000 fps, 2 054 Kbps (0.221 bit/pixel)
Аудио#1: 48.0 KHz, 6 ch, 320 Kbps, CBR
Общее
Уникальный идентификатор : 247274654516294904163921025275854139681 (0xBA075DBCCC8B1C2B9E6DA3F78C1D3121)
Полное имя : H:\Государственная граница\Gosudarstvennaya.granica.1980.RUS.DVDRip-AVC.H264.AC3.-Zarraza\01.My.nash.my.novyj.1980.RUS.DVDRip-AVC.H264.AC3.-Zarraza\01.My.nash.my.novyj.E01.1980.RUS.DVDRip-AVC.H264.AC3.-Zarraza.mkv
Формат : Matroska
Версия формата : Version 2
Размер файла : 1,11 Гбайт
Продолжительность : 1 ч. 5 м.
Общий поток : 2423 Кбит/сек
Дата кодирования : UTC 2011-10-08 06:52:04
Программа кодирования : mkvmerge v3.4.0 ('Rapunzel') сборка от May 15 2010 09:38:20
Библиотека кодирования : libebml v0.8.0 + libmatroska v0.9.0

Видео
Идентификатор : 1
Формат : AVC
Формат/Информация : Advanced Video Codec
Профиль формата : High@L3.1
Параметр CABAC формата : Да
Параметр ReFrames формата : 6 кадров
Параметр GOP формата : N=1
Идентификатор кодека : V_MPEG4/ISO/AVC
Продолжительность : 1 ч. 5 м.
Битрейт : 2054 Кбит/сек
Ширина : 704 пикселя
Высота : 528 пикселей
Соотношение сторон : 4:3
Режим частоты кадров : Постоянный
Частота кадров : 25,000 кадров/сек
Цветовое пространство : YUV
Субдискретизация насыщенности : 4:2:0
Битовая глубина : 8 бит
Тип развёртки : Прогрессивная
Бит/(Пиксели*Кадры) : 0.221
Размер потока : 963 Мбайт (85%)
Default : Да
Forced : Нет

Аудио
Идентификатор : 2
Формат : AC-3
Формат/Информация : Audio Coding 3
Расширение режима : CM (complete main)
Параметр Endianness формата : Big
Идентификатор кодека : A_AC3
Продолжительность : 1 ч. 5 м.
Вид битрейта : Постоянный
Битрейт : 320 Кбит/сек
Каналы : 6 каналов
Расположение каналов : Front: L C R, Side: L R, LFE
Частота : 48,0 КГц
Битовая глубина : 16 бит
Метод сжатия : С потерями
Задержка видео : 8 мс.
Размер потока : 150 Мбайт (13%)
Заголовок : AC3 5.1 - 320 kbps
Язык : Russian
Default : Нет
Forced : Нет


Государственная граница скачать торрент


freetor.icu



Скачать Государственная граница через торрент https://pic1.kartinco.top/images/81/ufium.jpg Скачать, смотреть онлайн Государственная граница бесплантно в хорошем качестве Описание: Фильм 1: Действие фильма происходит в 1917 году. В молодой республике Советов принимается декрет о границах и создании ... 10 10 21
Info! Золотая раздача, скачанное не засчитывается.
Торрент: Зарегистрирован [2014-11-20 15:11] · скачан: 132 раз
Статус: √ проверено
Размер: 19.68 GB
Как cкачать? Как скачать Государственная граница через торрент | UTorrent

% Раздел Тема Автор DL S | L
Наши сериалы [ 6.16 GB ] Государственная граница 2 / Серии: 1-8 из 8 [2013-2016 военный HDTVRip-AVC] aleksan55 Скачать
1 | 0

28-11-2019 20:33  

Отключить всю рекламу на сайте

20-11-2014 15:57 Государственная граница Скачать торрент  

За ПВ!!! freetor.icu



27-03-2015 08:18 Государственная граница Скачать торрент  

Отличный сериальчик. Смотрел его много раз.freetor.icu



23-12-2017 07:58 Государственная граница Скачать торрент  

Ещё бы на раздачу кто нибудь вышел. Больше двух недель скачать не могу.freetor.icu



    Дорогой пользователь! Огромная просьба, поблагодарите релизера, оцените раздачу и оставьте свои комментарий, если Вы скачали Государственная граница через торрент бесплатно!
    Комментировать посты могут только пользователи прошедшие не сложную регистрацию
    Показать сообщения:    

    Государственная граница через торрент
    Скачать бесплатно Государственная граница
    Государственная граница скачать торрент
    Государственная граница смотреть онлайн
    Cкачать фильм Государственная граница бесплатно
    Государственная граница скачать торрент в хорошем качестве
    Государственная граница смотреть онлайн бесплатно в хорошем качестве


    Вы не можете начинать темы
    Вы не можете отвечать на сообщения
    Вы не можете редактировать свои сообщения
    Вы не можете удалять свои сообщения
    Вы не можете голосовать в опросах
    Вы не можете прикреплять файлы к сообщениям
    Вы можете скачивать файлы