Anonymous, доброй ночи, присоединяйтесь к нам в Telegram!, здесь всегда актуальный адрес сайта, оперативная поддержка и многое другое!

>

5.6

iTunes

7.4

MVO

5.7

MVO

1

7.7

1 сезон

6.8

iTunes

7.3

1 сезон

13

6.7

1 сезон

8.3

RePack

30

ULTIMATE

pack

9.9

Лицензия

ВАЖНО

ИГРА 18+

pack

7.3

RePack

MK11

7.7

RePack

jed

7.8

RePack

fifa19

8.5

RePack

RDR2

RePack

NEED FOR SPEED™ PAYBACK

4 сезон

9 сезон

Бесстыжие 9 сезон

Все сериалы

все сериалы на PB.wtf

RePack

FAR CRY 5

Anonymous, доброй ночи, мы катастрофически не успеваем собрать деньги на оплату серверов, помогите нам пожалуйста 5,10,15р., для нас важна любая помощь . В качестве благодарности мы отключим Вам всю рекламу на сайте (укажите свой ник в строку Ваше имя)!

×
  
Magnet ссылка

Сказ про то, как царь Пётр арапа женил (Александр Митта) [1976 г., комедия, приключения, сказка, HDTV] freetor.icu

Сказ про то, как царь Пётр арапа женил через торрент freetor.icu

Размер: 2.14 GB | Добавлен: 6 лет 10 мес. назад | Торрент скачан:51 раз
Смотреть онлайн Сказ про то, как царь Пётр арапа женил | Скачать    Ребята, помогите собрать деньги на оплату серверов!!!

19-11-2014 09:24 Сказ про то, как царь Пётр арапа женил Скачать торрент  

Сказ про то как царь Пётр арапа женил
Год выпуска: 1976
Страна: СССР
Жанр: комедия, приключения, сказка
Продолжительность: 01:34:56

Режиссер: Александр Митта

В ролях: Владимир Высоцкий, Алексей Петренко, Иван Рыжов, Михаил Кокшенов, Ирина Мазуркевич, Женя Митта, Семен Морозов, Валерий Золотухин, Михаил Глузский, Олег Табаков, Александр Барушной, Владимир Кашпур, Василий Корнуков, Юрий Комаров, Валентина Клягина, Юрий Мартынов, Владимир Махов, Владимир Меньшов, Анатолий Обухов, Ирина Печерникова, Александр Пятков, Клара Румянова, Елена Рубцова, Николай Сергеев, Андрей Файт, Станислав Чекан, Людмила Чурсина, Леонид Чубаров, Людмила Давыдова, Виллор Кузнецов, Андрей Васильев, Александр Пашутин, Наталья Вавилова, Андрей Гусев, Михаил Метёлкин, Александр Граве (текст от автора)

Описание: Однажды царю Петру I был подарен маленький чернокожий раб, африканский принц Ибрагим - добрый и смышленный мальчуган, который стал для императора не рабом, но другом и крестником, получил отчество Петрович и фамилию Петров, быстро усвоил все науки и, став взрослым, был отправлен во Францию для получения более глубоких знаний и изысканных манер. Вернувшись из Парижа, на одном из балов арап влюбился в дочь богатого дворянина Наташу Ртищеву. Семья - в панике, царь - в восторге, готовит брак своего любимца. Но Ибрагим отказывается жениться, поскольку девушка его не любит, она в ужасе от его внешности, ей рассказывают про арапа страшные сказки. Царь настаивает на своём, Ибрагим - на своём...

Качество: HDTV
Формат: MKV
Видео кодек: AVC
Аудио кодек: AC3
Видео: 1024x584, (16:9), 25.000 fps, ~3000 Kbps
Аудио#1: 48 kHzl, 2/0 ch, ~224.00 kbps
Общее
Уникальный идентификатор : 184604227064297117030492737107657664741 (0x8AE17B1AB68B7FC3B3A046FED36EA8E5)
Полное имя : H:\Сказ про то, как царь Петр арапа женил\Сказ про то, как царь Петр арапа женил_1976-HDTVRip-AVC .mkv
Формат : Matroska
Версия формата : Version 2
Размер файла : 2,14 Гбайт
Продолжительность : 1 ч. 34 м.
Общий поток : 3227 Кбит/сек
Дата кодирования : UTC 2014-04-12 06:21:27
Программа кодирования : mkvmerge v5.1.0 ('And so it goes') built on Nov 28 2011 23:58:28
Библиотека кодирования : libebml v1.2.3 + libmatroska v1.3.0

Видео
Идентификатор : 1
Формат : AVC
Формат/Информация : Advanced Video Codec
Профиль формата : High@L4.1
Параметр CABAC формата : Да
Параметр ReFrames формата : 12 кадров
Идентификатор кодека : V_MPEG4/ISO/AVC
Продолжительность : 1 ч. 34 м.
Битрейт : 3000 Кбит/сек
Ширина : 1024 пикселя
Высота : 584 пикселя
Соотношение сторон : 16:9
Режим частоты кадров : Постоянный
Частота кадров : 25,000 кадров/сек
Цветовое пространство : YUV
Субдискретизация насыщенности : 4:2:0
Битовая глубина : 8 бит
Тип развёртки : Прогрессивная
Бит/(Пиксели*Кадры) : 0.201
Размер потока : 1,95 Гбайт (91%)
Библиотека кодирования : x264 core 142 r2409 d6b4e63
Настройки программы : cabac=1 / ref=12 / deblock=1:-2:-2 / analyse=0x3:0x113 / me=umh / subme=11 / psy=1 / psy_rd=1.05:0.20 / mixed_ref=1 / me_range=24 / chroma_me=1 / trellis=2 / 8x8dct=1 / cqm=0 / deadzone=21,11 / fast_pskip=0 / chroma_qp_offset=-3 / threads=12 / lookahead_threads=2 / sliced_threads=0 / nr=0 / decimate=0 / interlaced=0 / bluray_compat=0 / constrained_intra=0 / bframes=7 / b_pyramid=2 / b_adapt=2 / b_bias=0 / direct=3 / weightb=1 / open_gop=0 / weightp=2 / keyint=250 / keyint_min=25 / scenecut=40 / intra_refresh=0 / rc=2pass / mbtree=0 / bitrate=3000 / ratetol=1.0 / qcomp=0.60 / qpmin=0 / qpmax=39 / qpstep=4 / cplxblur=20.0 / qblur=0.5 / ip_ratio=1.30 / pb_ratio=1.20 / aq=1:1.00
Язык : English
Default : Да
Forced : Нет
Основные цвета : BT.709
Характеристики трансфера : BT.709
Коэффициенты матрицы : BT.709
colour_range : Limited

Аудио
Идентификатор : 2
Формат : AC-3
Формат/Информация : Audio Coding 3
Расширение режима : CM (complete main)
Параметр Endianness формата : Big
Идентификатор кодека : A_AC3
Продолжительность : 1 ч. 34 м.
Вид битрейта : Постоянный
Битрейт : 224 Кбит/сек
Каналы : 2 канала
Расположение каналов : Front: L R
Частота : 48,0 КГц
Битовая глубина : 16 бит
Метод сжатия : С потерями
Размер потока : 152 Мбайт (7%)
Язык : Russian
Default : Да
Forced : Нет

freetor.icu



Скачать Сказ про то, как царь Пётр арапа женил через торрент https://pic1.kartinco.top/images/81/ft8eu.jpg Скачать, смотреть онлайн Сказ про то, как царь Пётр арапа женил бесплантно в хорошем качестве Описание: Однажды царю Петру I был подарен маленький чернокожий раб, африканский принц Ибрагим - добрый и смышленный мальчуган, который ... 10 10 5
Info! Золотая раздача, скачанное не засчитывается.
Торрент: Зарегистрирован [2014-11-19 09:24] · скачан: 51 раз
Статус: √ проверено
Размер: 2.14 GB
Как cкачать? Как скачать Сказ про то, как царь Пётр арапа женил через торрент | UTorrent

28-11-2019 20:33  

Отключить всю рекламу на сайте

    Дорогой пользователь! Огромная просьба, поблагодарите релизера, оцените раздачу и оставьте свои комментарий, если Вы скачали Сказ про то, как царь Пётр арапа женил через торрент бесплатно!
    Комментировать посты могут только пользователи прошедшие не сложную регистрацию
    Показать сообщения:    

    Сказ про то, как царь Пётр арапа женил через торрент
    Скачать бесплатно Сказ про то, как царь Пётр арапа женил
    Сказ про то, как царь Пётр арапа женил скачать торрент
    Сказ про то, как царь Пётр арапа женил смотреть онлайн
    Cкачать фильм Сказ про то, как царь Пётр арапа женил бесплатно
    Сказ про то, как царь Пётр арапа женил скачать торрент в хорошем качестве
    Сказ про то, как царь Пётр арапа женил смотреть онлайн бесплатно в хорошем качестве


    Вы не можете начинать темы
    Вы не можете отвечать на сообщения
    Вы не можете редактировать свои сообщения
    Вы не можете удалять свои сообщения
    Вы не можете голосовать в опросах
    Вы не можете прикреплять файлы к сообщениям
    Вы можете скачивать файлы