>

5.6

iTunes

6.1

MVO

5.7

MVO

1

7.4

1 сезон

6.8

iTunes

7.2

1 сезон

13

6.7

1 сезон

8.3

RePack

30

Deluxe

pack

9.9

Лицензия

ВАЖНО

ИГРА 18+

pack

7.3

RePack

MK11

7.7

RePack

jed

7.8

RePack

fifa19

8.5

RePack

RDR2

RePack

NEED FOR SPEED™ PAYBACK

4 сезон

9 сезон

Бесстыжие 9 сезон

Все сериалы

все сериалы на PB.wtf

RePack

FAR CRY 5

Anonymous, добрый день, мы катастрофически не успеваем собрать деньги на оплату серверов, помогите нам пожалуйста 5,10,15р., для нас важна любая помощь . В качестве благодарности мы отключим Вам всю рекламу на сайте (укажите свой ник в строку Ваше имя)!

×
  
Magnet ссылка

Мэри Ком / Mary Kom (Омунг Кумар / Omung Kumar) [2014, Индия, драма, биография, спорт, HDRip,Любительский (одноголосый) [R.A.I.M.] freetor.icu

Мэри Ком через торрент freetor.icu

Размер: 1.46 GB | Добавлен: 6 лет 10 мес. назад | Торрент скачан:70 раз
Смотреть онлайн Мэри Ком | Скачать    Ребята, помогите собрать деньги на оплату серверов!!!

27-10-2014 22:57 Мэри Ком Скачать торрент  

Мэри Ком / Mary Kom

Год выпуска: 2014
Страна: Индия
Жанр: драма, биография, спорт
Продолжительность: 02:01:07
Перевод: Любительский (одноголосый) [R.A.I.M.]
Субтитры: Нет
Режиссер: Омунг Кумар / Omung Kumar
В ролях: Приянка Чопра (Mary Kom), Захари Соффин (German Boxing Coach), Darshan Kumaar (Onler Kom), Даршан Кумар (Onler), Lin Laishram (Bem), Шишир Шарма (слухи), Сунил Тхапа (Mary Kom's Coach)
Описание:
Мэри, дочери бедного крестьянина из отдалённой деревни, подарили на день рождения боксёрские перчатки. Первая несанкционированная схватка Мэри с достойным противником даёт ей шанс выиграть немного денег для семьи. После встречи с тренером по боксу девушка стала профессионально заниматься боксом. Мать поддерживает желание Мэри стать профессиональной боксёршей, а отец очень недоволен этим решением.
Рейтинг
kinopoisk.ru: 8.667 (18)
imdb.com: 7.00 (2494)
Качество: HDRip
Формат: AVI
Видео кодек: XviD
Аудио кодек:AC3
Видео: XviD, 720x304 (2.35:1), 1327 kbps, 24 fps, 0,253 bpp
Аудио: AC3 / 5.1 / 48 kHz / 384 kbps / 16 bit

General
Complete name : D:\Торенты\Meri.Kom.2014.HDRip.1500mb.avi
Format : AVI
Format/Info : Audio Video Interleave
File size : 1.46 GiB
Duration : 2h 1mn
Overall bit rate : 1 721 Kbps
Movie name : Mary.Kom.2014.HDRip.XviD-soso4eg
Director : soso4eg
Writing application : VirtualDubMod 1.5.10.3 | www.virtualdub-fr.org || (build 2550/release)
Original source form/Name : Hindi

Comment : пер. RAIM по суб. Honey&Haseena

Video
ID : 0
Format : MPEG-4 Visual
Format profile : Advanced Simple@L5
Format settings, BVOP : 1
Format settings, QPel : No
Format settings, GMC : No warppoints
Format settings, Matrix : Default (H.263)
Codec ID : XVID
Codec ID/Hint : XviD
Duration : 2h 1mn
Bit rate : 1 328 Kbps
Width : 720 pixels
Height : 304 pixels
Display aspect ratio : 2.35:1
Frame rate : 24.000 fps
Color space : YUV
Chroma subsampling : 4:2:0
Bit depth : 8 bits
Scan type : Progressive
Compression mode : Lossy
Bits/(Pixel*Frame) : 0.253
Stream size : 1.12 GiB (77%)
Writing library : XviD 1.2.1 (UTC 2008-12-04)

Audio
ID : 1
Format : AC-3
Format/Info : Audio Coding 3
Mode extension : CM (complete main)
Codec ID : 2000
Duration : 2h 1mn
Bit rate mode : Constant
Bit rate : 384 Kbps
Channel(s) : 6 channels
Channel positions : Front: L C R, Side: L R, LFE
Sampling rate : 48.0 KHz
Bit depth : 16 bits
Compression mode : Lossy
Stream size : 333 MiB (22%)
Alignment : Split accross interleaves
Interleave, duration : 42 ms (1.00 video frame)
Interleave, preload duration : 500 ms
freetor.icu



Скачать Мэри Ком через торрент http://i66.fastpic.ru/big/2014/1028/44/ae05c4c8401a12d2b1010ea13e4ac244.jpg Скачать, смотреть онлайн Мэри Ком бесплантно в хорошем качестве Описание: Мэри, дочери бедного крестьянина из отдалённой деревни, подарили на день рождения боксёрские перчатки. Первая несанкционированная ... 10 10 4
Торрент: Зарегистрирован [2014-10-27 22:57] · скачан: 70 раз
Статус: √ проверено
Размер: 1.46 GB
Как cкачать? Как скачать Мэри Ком через торрент | UTorrent

% Раздел Тема Автор DL S | L
T Фильмы [HD 720p, 1080p] (Звук Cam, VO, DVO) [ 7.9 GB ] Мэри Ком / Mary Kom [2014 Индия биография BDRip 1080pЛюбительский [R.A.I.M.] Ворон Скачать
1 | 0

28-11-2019 20:33  

Отключить всю рекламу на сайте

    Дорогой пользователь! Огромная просьба, поблагодарите релизера, оцените раздачу и оставьте свои комментарий, если Вы скачали Мэри Ком через торрент бесплатно!
    Комментировать посты могут только пользователи прошедшие не сложную регистрацию
    Показать сообщения:    

    Мэри Ком через торрент
    Скачать бесплатно Мэри Ком
    Мэри Ком скачать торрент
    Мэри Ком смотреть онлайн
    Cкачать фильм Мэри Ком бесплатно
    Мэри Ком скачать торрент в хорошем качестве
    Мэри Ком смотреть онлайн бесплатно в хорошем качестве


    Вы не можете начинать темы
    Вы не можете отвечать на сообщения
    Вы не можете редактировать свои сообщения
    Вы не можете удалять свои сообщения
    Вы не можете голосовать в опросах
    Вы не можете прикреплять файлы к сообщениям
    Вы можете скачивать файлы