>

5.6

iTunes

6.1

MVO

5.7

MVO

1

7.4

1 сезон

6.8

iTunes

7.2

1 сезон

13

6.7

1 сезон

8.3

RePack

30

Deluxe

pack

9.9

Лицензия

ВАЖНО

ИГРА 18+

pack

7.3

RePack

MK11

7.7

RePack

jed

7.8

RePack

fifa19

8.5

RePack

RDR2

RePack

NEED FOR SPEED™ PAYBACK

4 сезон

9 сезон

Бесстыжие 9 сезон

Все сериалы

все сериалы на PB.wtf

RePack

FAR CRY 5

Anonymous, добрый вечер, мы катастрофически не успеваем собрать деньги на оплату серверов, помогите нам пожалуйста 5,10,15р., для нас важна любая помощь . В качестве благодарности мы отключим Вам всю рекламу на сайте (укажите свой ник в строку Ваше имя)!

×
  
Magnet ссылка

Существо / Creature (Викрам Бхатт / Vikram Bhatt) [2014, Индия, ужасы, фантастика, DVDRip,Любительский (двухголосый)[den904, DeadSno] freetor.icu

Существо через торрент freetor.icu

Размер: 1.46 GB | Добавлен: 6 лет 10 мес. назад | Торрент скачан:133 раза
Смотреть онлайн Существо | Скачать    Ребята, помогите собрать деньги на оплату серверов!!!

26-10-2014 10:56 Существо Скачать торрент  

Существо / Creature

Год выпуска: 2014
Страна: Индия
Жанр: ужасы, фантастика
Продолжительность: 02:17:41
Перевод: Любительский (двухголосый)[den904, DeadSno]
Субтитры: Нет
Режиссер: Викрам Бхатт / Vikram Bhatt
В ролях: Бипаша Басу (Ahana), Имран Аббас (Kunal), Мукул Дев (Professor Sadana), Deepraj Rana, Бикрамджит Сингх, Natasha Rana (Psychiarist)
Описание:
Одна из древних индийских легенд повествует о проклятых богом Брахмой демонах-людоедах – брахма-ракшасах. Много веков назад их сокрушили великие боги и заточили в специальные ловушки. Прошло время и люди, строившие дороги в Бхопале, случайно срубили дерево Баньян, священное для жителей, чем помогли одному из кровожадных демонов выбраться из западни. Получив долгожданную свободу, возродившийся демон стал пожирать людей, живших в деревне и прибывших в гости на открытие местного отеля. Ахана владеет этим отелем, и ей придется начать опасную борьбу с чудовищем, чтобы спасти свой отель от страшного монстра.
Качество: DVDRip
Формат: AVI
Видео кодек: XviD
Аудио кодек:MP3
Видео: XviD, 704x304 (2.35:1), 1376 kbps, 23,976 fps, 0,268 bpp
Аудио: MP3 / 2.0 / 48 kHz / 128 kbps /

General
Complete name : D:\Торенты\Creature.2014.DVDRip.XviD.avi
Format : AVI
Format/Info : Audio Video Interleave
File size : 1.46 GiB
Duration : 2h 17mn
Overall bit rate : 1 514 Kbps
Movie name : Creature.2014.DVDRip.XviD-soso4eg
Director : soso4eg
Writing application : VirtualDubMod 1.5.10.3 | www.virtualdub-fr.org || (build 2550/release)
C

Video
ID : 0
Format : MPEG-4 Visual
Format profile : Advanced Simple@L5
Format settings, BVOP : 1
Format settings, QPel : No
Format settings, GMC : No warppoints
Format settings, Matrix : Default (H.263)
Codec ID : XVID
Codec ID/Hint : XviD
Duration : 2h 17mn
Bit rate : 1 377 Kbps
Width : 704 pixels
Height : 304 pixels
Display aspect ratio : 2.35:1
Frame rate : 23.976 fps
Color space : YUV
Chroma subsampling : 4:2:0
Bit depth : 8 bits
Scan type : Progressive
Compression mode : Lossy
Bits/(Pixel*Frame) : 0.268
Stream size : 1.32 GiB (91%)
Writing library : XviD 1.2.1 (UTC 2008-12-04)

Audio
ID : 1
Format : MPEG Audio
Format version : Version 1
Format profile : Layer 3
Mode : Joint stereo
Mode extension : MS Stereo
Codec ID : 55
Codec ID/Hint : MP3
Duration : 2h 17mn
Bit rate mode : Constant
Bit rate : 128 Kbps
Channel(s) : 2 channels
Sampling rate : 48.0 KHz
Compression mode : Lossy
Stream size : 126 MiB (8%)
Alignment : Aligned on interleaves
Interleave, duration : 42 ms (1.00 video frame)
Interleave, preload duration : 504 ms
freetor.icu



Скачать Существо через торрент http://i67.fastpic.ru/big/2014/1026/6f/fb7930ef1d9924ba44ff928ad55b926f.jpg Скачать, смотреть онлайн Существо бесплантно в хорошем качестве Описание: Одна из древних индийских легенд повествует о проклятых богом Брахмой демонах-людоедах – брахма-ракшасах. Много веков назад их ... 9.1 10 7
Торрент: Зарегистрирован [2014-10-26 10:56] · скачан: 133 раз
Статус: √ проверено
Размер: 1.46 GB
Как cкачать? Как скачать Существо через торрент | UTorrent

% Раздел Тема Автор DL S | L
Зарубежные сериалы [ 13.07 GB ] Все существа большие и малые / О всех созданиях — больших и малых / All Creatures Great and Small / Сезон: 1 / Серии: 1-7 из 7 [2020 WEB-DL 1080p] MVO [SDI Media] bober100 Скачать
1 | 0
T Релизы по Парсеру [Игры, Сериалы и Фильмы и другое...] [ 1.46 GB ] Существо из бездны / The Creature Below [2016 WEB-DLRip Любительский [Хихикающий доктор] ] oleg8 Скачать
1 | 0
T Релизы по Парсеру [Игры, Сериалы и Фильмы и другое...] [ 698 MB ] Существо из бездны / The Creature Below [2016 WEB-DLRip] / Любительский [Хихикающий доктор] Sherif Скачать
1 | 0
Фильмы с авторской озвучкой [ 7.32 GB ] Существо из бездны / The Creature Below [2016 BDRip 1080p] AVO+VO bober100 Скачать
1 | 0
T Фильмы 2016 [DVDrip, WEB-DLRip, HDrip] (DUB, MVO) [ 1.37 GB ] Существо из бездны / The Creature Below [2016 WEB-DLRip] MVO ["Синема УС"] bober100 Скачать
1 | 0
Фильмы 2010 [ 1.37 GB ] Лесные существа / Suma summarumn / Forest Creatures [2010 чёрная DVDRip VO] stalonе Скачать
1 | 0

28-11-2019 20:33  

Отключить всю рекламу на сайте

26-10-2014 11:05 Существо Скачать торрент  

Танцев много?freetor.icu



26-10-2014 11:39 Существо Скачать торрент  

ага с демоном танцуютfreetor.icu



26-10-2014 11:42 Существо Скачать торрент  

На первом скрине одному танцору как раз ногу оторвали.freetor.icu



04-07-2015 19:57 Существо Скачать торрент  

а на втором две приделалиfreetor.icu



02-02-2016 19:28 Существо Скачать торрент  

Смотрящий писал(а):

Танцев много?

freetor.icu



    Дорогой пользователь! Огромная просьба, поблагодарите релизера, оцените раздачу и оставьте свои комментарий, если Вы скачали Существо через торрент бесплатно!
    Комментировать посты могут только пользователи прошедшие не сложную регистрацию
    Показать сообщения:    

    Существо через торрент
    Скачать бесплатно Существо
    Существо скачать торрент
    Существо смотреть онлайн
    Cкачать фильм Существо бесплатно
    Существо скачать торрент в хорошем качестве
    Существо смотреть онлайн бесплатно в хорошем качестве


    Вы не можете начинать темы
    Вы не можете отвечать на сообщения
    Вы не можете редактировать свои сообщения
    Вы не можете удалять свои сообщения
    Вы не можете голосовать в опросах
    Вы не можете прикреплять файлы к сообщениям
    Вы можете скачивать файлы