>

8.4

Хороший звук

6.1

MVO

6.4

Line & MVO

1

7.4

1 сезон

6.8

iTunes

7.2

1 сезон

13

6.7

1 сезон

8.3

RePack

30

Deluxe

pack

9.9

Лицензия

ВАЖНО

ИГРА 18+

pack

7.3

RePack

MK11

7.7

RePack

jed

7.8

RePack

fifa19

8.5

RePack

RDR2

RePack

NEED FOR SPEED™ PAYBACK

4 сезон

9 сезон

Бесстыжие 9 сезон

Все сериалы

все сериалы на PB.wtf

RePack

FAR CRY 5

Anonymous, доброе утро, мы катастрофически не успеваем собрать деньги на оплату серверов, помогите нам пожалуйста 5,10,15р., для нас важна любая помощь . В качестве благодарности мы отключим Вам всю рекламу на сайте (укажите свой ник в строку Ваше имя)!

×
  
Magnet ссылка

Отважная / Mardaani (Прадип Саркар / Pradeep Sarkar) [2014, Индия, боевик, триллер, драма, HDRip, Любительский (одноголосый) [R.A.I.M.] freetor.icu

Отважная через торрент freetor.icu

Размер: 1.37 GB | Добавлен: 6 лет 11 мес. назад | Торрент скачан:83 раза
Смотреть онлайн Отважная | Скачать    Ребята, помогите собрать деньги на оплату серверов!!!

05-10-2014 07:24 Отважная Скачать торрент  

Отважная / Mardaani


  • Год выпуска: 2014
  • Страна: Индия
  • Жанр: боевик, триллер, драма

  • Продолжительность: 01:54:17
  • Перевод: Любительский (одноголосый) [R.A.I.M.]

  • Режиссер: Прадип Саркар / Pradeep Sarkar
  • В ролях:

    Рани Мукхерджи (Shivani Shivaji Roy), Tahir Bhasin (Walt / Karan), Санджай Танеджа (Minister Tanejaji)

  • Описание:
    Старший инспектор отдела полиции Мумбаи по борьбе с организованной преступностью Шивани Шиваджи Рой наделена безграничной отвагой и неподкупностью. Глава мафии, специализирующейся на торговле детьми совершает ошибку - похищает девочку-подростка Пьяри, торгующую цветами на улице, которая очень дорога семье Шивани, где к ней относятся как к дочери. Когда Пьяри не появляется несколько дней, Шивани понимает, что с ней что-то случилось. В поисках девушки, Шивани приходится столкнуться с миром упадка и разврата, жестоких желаний и эксплуатации детей.
  • Рейтинг:



  • Качество: HDRip
  • Формат: :AVI
  • Видео кодек: DivX 5
  • Аудио кодек: MP3
  • Видео: 720x304 (2.35:1), 1581 kbps, 24 fps, 0,301 bpp
  • Аудио: 2.0 / 48 kHz / 128 kbps /
  • Релиз от: GEKADOL

    Код:

    General
    Complete name                            : I:\Mardaani.L1.2014.HDRip.1400mb.avi
    Format                                   : AVI
    Format/Info                              : Audio Video Interleave
    File size                                : 1.37 GiB
    Duration                                 : 1h 54mn
    Overall bit rate                         : 1 718 Kbps
    Writing application                      : VirtualDubMod 1.5.10.3 | www.virtualdub-fr.org || (build 2550/release)
    Writing library                          : VirtualDubMod build 2550/release

    Video
    ID                                       : 0
    Format                                   : MPEG-4 Visual
    Format profile                           : Advanced Simple@L5
    Format settings, BVOP                    : 1
    Format settings, QPel                    : No
    Format settings, GMC                     : No warppoints
    Format settings, Matrix                  : Default (MPEG)
    Codec ID                                 : DX50
    Codec ID/Hint                            : DivX 5
    Duration                                 : 1h 54mn
    Bit rate                                 : 1 581 Kbps
    Width                                    : 720 pixels
    Height                                   : 304 pixels
    Display aspect ratio                     : 2.35:1
    Frame rate                               : 24.000 fps
    Color space                              : YUV
    Chroma subsampling                       : 4:2:0
    Bit depth                                : 8 bits
    Scan type                                : Progressive
    Compression mode                         : Lossy
    Bits/(Pixel*Frame)                       : 0.301
    Stream size                              : 1.26 GiB (92%)
    Writing library                          : XviD 1.2.1 (UTC 2008-12-04)

    Audio
    ID                                       : 1
    Format                                   : MPEG Audio
    Format version                           : Version 1
    Format profile                           : Layer 3
    Mode                                     : Joint stereo
    Mode extension                           : MS Stereo
    Codec ID                                 : 55
    Codec ID/Hint                            : MP3
    Duration                                 : 1h 54mn
    Bit rate mode                            : Constant
    Bit rate                                 : 128 Kbps
    Channel(s)                               : 2 channels
    Sampling rate                            : 48.0 KHz
    Compression mode                         : Lossy
    Stream size                              : 104 MiB (7%)
    Alignment                                : Aligned on interleaves
    Interleave, duration                     : 42 ms (1.00 video frame)
    Interleave, preload duration             : 504 ms
    Writing library                          : LAME3.99r
    Encoding settings                        : -m j -V 4 -q 3 -lowpass 17 -b 128


    Скриншоты:


    freetor.icu



  • Скачать Отважная через торрент http://i67.fastpic.ru/big/2014/1005/91/5434937e7ed67a9f61e2489eef701791.jpg Скачать, смотреть онлайн Отважная бесплантно в хорошем качестве Описание: Старший инспектор отдела полиции Мумбаи по борьбе с организованной преступностью Шивани Шиваджи Рой наделена безграничной отвагой ... 9 10 5
    Торрент: Зарегистрирован [2014-10-05 07:24] · скачан: 83 раз
    Статус: √ проверено
    Размер: 1.37 GB
    Как cкачать? Как скачать Отважная через торрент | UTorrent

    28-11-2019 20:33  

    Отключить всю рекламу на сайте

      Дорогой пользователь! Огромная просьба, поблагодарите релизера, оцените раздачу и оставьте свои комментарий, если Вы скачали Отважная через торрент бесплатно!
      Комментировать посты могут только пользователи прошедшие не сложную регистрацию
      Показать сообщения:    

      Отважная через торрент
      Скачать бесплатно Отважная
      Отважная скачать торрент
      Отважная смотреть онлайн
      Cкачать фильм Отважная бесплатно
      Отважная скачать торрент в хорошем качестве
      Отважная смотреть онлайн бесплатно в хорошем качестве


      Вы не можете начинать темы
      Вы не можете отвечать на сообщения
      Вы не можете редактировать свои сообщения
      Вы не можете удалять свои сообщения
      Вы не можете голосовать в опросах
      Вы не можете прикреплять файлы к сообщениям
      Вы можете скачивать файлы