>

5.6

iTunes

6.1

MVO

5.7

MVO

1

7.4

1 сезон

6.8

iTunes

7.2

1 сезон

13

6.7

1 сезон

8.3

RePack

30

Deluxe

pack

9.9

Лицензия

ВАЖНО

ИГРА 18+

pack

7.3

RePack

MK11

7.7

RePack

jed

7.8

RePack

fifa19

8.5

RePack

RDR2

RePack

NEED FOR SPEED™ PAYBACK

4 сезон

9 сезон

Бесстыжие 9 сезон

Все сериалы

все сериалы на PB.wtf

RePack

FAR CRY 5

Anonymous, добрый вечер, мы катастрофически не успеваем собрать деньги на оплату серверов, помогите нам пожалуйста 5,10,15р., для нас важна любая помощь . В качестве благодарности мы отключим Вам всю рекламу на сайте (укажите свой ник в строку Ваше имя)!

×
  
Magnet ссылка

Тайное оружие / Thuppakki (А.Р. Муругадос / A.R. Murugadoss) [2012, Индия, Боевик, мелодрама, HDRip] MVO (Red Media) freetor.icu

Тайное оружие через торрент freetor.icu

Размер: 1.46 GB | Добавлен: 6 лет 11 мес. назад | Торрент скачан:77 раз
Смотреть онлайн Тайное оружие | Скачать    Ребята, помогите собрать деньги на оплату серверов!!!

24-09-2014 14:53 Тайное оружие Скачать торрент  

Тайное оружие / Thuppakki
«I'm waiting»

Год выпуска: 2012
Страна: Индия
Жанр:боевик, триллер, криминал
Продолжительность:02:49:49
Перевод:Профессиональный многоголосый (Red Media)
Режиссер:А.Р. Муругадосс

  • В ролях:

    Виджай (Jagadish Dhanapalan), Каджал (Nisha), Сатьян (Balaji), Видьют Джамвал (Sleeper Cell's Leader), Джаярам (Ravichandran), Монобала (Nisha's Father), Закир Хуссэйн (Kamarudeen), Анупама Кумар, Диптхи Намбиар (Jagadish's Sister), Акшара Говда (Item), Прашант Нэйр (Neil), Гаутам Куруп

  • Описание:
    Джагдиш, капитан индийской армии, возвращается из Кашмира в Мумбаи. Прямо с вокзала родители и сестры везут Джагдиша посмотреть на девушку Нишу, которую ему выбрали в качестве невесты. Посмотрев на девушку, Джагдиш отказывается на ней жениться, поскольку она ему не понравилась, так как она слишком старомодна. Но девушка не так проста, как кажется, и вскоре парня ждет большой сюрприз... Однако, в Мумбаи Джагдиша ждут не только любовные перипетии. Он сталкивается с мощной террористической сетью «спящих ячеек» в Индии, которых он обязан уничтожить, даже ценой своей жизни.

  • Мировая премьера:13 ноября 2012


    Качество: HDRip
    Формат:AVI
    Видео кодек: XviD
    Аудио кодек:MP3
    Видео: XviD, 672x288 (2.35:1), 1093 kbps, 23,976 fps, 0,236 bpp
    Аудио: MP3 / 2.0 / 48 kHz / 128 kbps /



    Код:

    General
    Complete name                            : D:\Торенты\Taynoe.Oruzhie.2012.HDRip.XviD-soso4eg.avi
    Format                                   : AVI
    Format/Info                              : Audio Video Interleave
    File size                                : 1.46 GiB
    Duration                                 : 2h 49mn
    Overall bit rate                         : 1 231 Kbps
    Movie name                               : Thuppakki.2012.HDRip.XviD-soso4eg
    Director                                 : soso4eg
    Writing application                      : VirtualDubMod 1.5.10.3 | www.virtualdub-fr.org || (build 2550/release)

    Comment                                  : пер. Red Media

    Video
    ID                                       : 0
    Format                                   : MPEG-4 Visual
    Format profile                           : Advanced Simple@L5
    Format settings, BVOP                    : 1
    Format settings, QPel                    : No
    Format settings, GMC                     : No warppoints
    Format settings, Matrix                  : Default (H.263)
    Codec ID                                 : XVID
    Codec ID/Hint                            : XviD
    Duration                                 : 2h 49mn
    Bit rate                                 : 1 094 Kbps
    Width                                    : 672 pixels
    Height                                   : 288 pixels
    Display aspect ratio                     : 2.35:1
    Frame rate                               : 23.976 fps
    Color space                              : YUV
    Chroma subsampling                       : 4:2:0
    Bit depth                                : 8 bits
    Scan type                                : Progressive
    Compression mode                         : Lossy
    Bits/(Pixel*Frame)                       : 0.236
    Stream size                              : 1.30 GiB (89%)
    Writing library                          : XviD 1.2.1 (UTC 2008-12-04)

    Audio
    ID                                       : 1
    Format                                   : MPEG Audio
    Format version                           : Version 1
    Format profile                           : Layer 3
    Mode                                     : Joint stereo
    Mode extension                           : MS Stereo
    Codec ID                                 : 55
    Codec ID/Hint                            : MP3
    Duration                                 : 2h 49mn
    Bit rate mode                            : Constant
    Bit rate                                 : 128 Kbps
    Channel(s)                               : 2 channels
    Sampling rate                            : 48.0 KHz
    Compression mode                         : Lossy
    Stream size                              : 155 MiB (10%)
    Alignment                                : Aligned on interleaves
    Interleave, duration                     : 42 ms (1.00 video frame)
    Interleave, preload duration             : 504 ms

    Скриншоты:



    © Оформление by Ravenfreetor.icu



  • Скачать Тайное оружие через торрент https://pic1.kartinco.top/images/61/stazu.jpg Скачать, смотреть онлайн Тайное оружие бесплантно в хорошем качестве Описание:Джагдиш, капитан индийской армии, возвращается из Кашмира в Мумбаи. Прямо с вокзала родители и сестры везут Джагдиша посмотреть на ... 10 10 3
    Торрент: Зарегистрирован [2014-09-24 14:53] · скачан: 77 раз
    Статус: √ проверено
    Размер: 1.46 GB
    Как cкачать? Как скачать Тайное оружие через торрент | UTorrent

    28-11-2019 20:33  

    Отключить всю рекламу на сайте

      Дорогой пользователь! Огромная просьба, поблагодарите релизера, оцените раздачу и оставьте свои комментарий, если Вы скачали Тайное оружие через торрент бесплатно!
      Комментировать посты могут только пользователи прошедшие не сложную регистрацию
      Показать сообщения:    

      Тайное оружие через торрент
      Скачать бесплатно Тайное оружие
      Тайное оружие скачать торрент
      Тайное оружие смотреть онлайн
      Cкачать фильм Тайное оружие бесплатно
      Тайное оружие скачать торрент в хорошем качестве
      Тайное оружие смотреть онлайн бесплатно в хорошем качестве


      Вы не можете начинать темы
      Вы не можете отвечать на сообщения
      Вы не можете редактировать свои сообщения
      Вы не можете удалять свои сообщения
      Вы не можете голосовать в опросах
      Вы не можете прикреплять файлы к сообщениям
      Вы можете скачивать файлы