>

5.6

iTunes

6.1

MVO

5.7

MVO

1

7.4

1 сезон

6.8

iTunes

7.2

1 сезон

13

6.7

1 сезон

8.3

RePack

30

Deluxe

pack

9.9

Лицензия

ВАЖНО

ИГРА 18+

pack

7.3

RePack

MK11

7.7

RePack

jed

7.8

RePack

fifa19

8.5

RePack

RDR2

RePack

NEED FOR SPEED™ PAYBACK

4 сезон

9 сезон

Бесстыжие 9 сезон

Все сериалы

все сериалы на PB.wtf

RePack

FAR CRY 5

Anonymous, добрый день, мы катастрофически не успеваем собрать деньги на оплату серверов, помогите нам пожалуйста 5,10,15р., для нас важна любая помощь . В качестве благодарности мы отключим Вам всю рекламу на сайте (укажите свой ник в строку Ваше имя)!

×
  
Magnet ссылка

Последняя запись 2 / Ragini MMS 2 (Бхушан Патель / Bhushan Patel) [2014, Индия, ужасы, триллер, мелодрама, HDRip, Любительский (двухголосый)[den904, DeadSno] freetor.icu

Последняя запись 2 через торрент freetor.icu

Размер: 1.37 GB | Добавлен: 7 лет назад | Торрент скачан:36 раз
Смотреть онлайн Последняя запись 2 | Скачать    Ребята, помогите собрать деньги на оплату серверов!!!

15-09-2014 01:16 Последняя запись 2 Скачать торрент  

Последняя запись 2 / Ragini MMS 2
«Do Mein Zyada Maza Hai»


  • Год выпуска: 2014
  • Страна: Индия
  • Жанр: ужасы, триллер, мелодрама
  • Продолжительность: 01:59:22
  • Перевод: Любительский (двухголосый)[den904, DeadSno]

  • Режиссер: Бхушан Патель / Bhushan Patel
  • В ролях:

    Санни Леоне (Sunny), Саахил Прем (Satya), Парвин Дабас (Rocks), Сандхья Мридул (Monali), Дивья Дутта (Doctor), Сония Мехра (Tanya Kapoor), Анита Хассандани (Gina), Каран Мера (Maddy), Karan Taluja (Kunal Khanna), Кайназ Мотивала (Ragini), Рэни Вашишт (Old Women), Sagar Talashikar (Father)

  • Описание:
    Рагини заперта в психиатрической больнице. Режиссер решает снять фильм о ней, снимая в тех местах, где ранее происходили сверхъестественные события...
  • Рейтинг:



  • Качество: HDRip
  • Формат: :AVI
  • Видео кодек: XviD
  • Аудио кодек: MP3
  • Видео: 688x288 (2.40:1), 1502 kbps, 24 fps, 0,316 bpp
  • Аудио: 2.0 / 48 kHz / 128 kbps
  • Релиз от: GEKADOL
    Не нашли то, что искали? Для вас "Стол заказов" "Жмём сюда!"

    Код:

    General
    Complete name                            : I:\Poslednyaya.zapis.2.2014.XviD.HDRip.avi
    Format                                   : AVI
    Format/Info                              : Audio Video Interleave
    File size                                : 1.37 GiB
    Duration                                 : 1h 59mn
    Overall bit rate                         : 1 640 Kbps
    Writing application                      : VirtualDubMod 1.5.10.2 (build 2540/release)
    Writing library                          : VirtualDubMod build 2540/release

    Video
    ID                                       : 0
    Format                                   : MPEG-4 Visual
    Format profile                           : Advanced Simple@L5
    Format settings, BVOP                    : 1
    Format settings, QPel                    : No
    Format settings, GMC                     : No warppoints
    Format settings, Matrix                  : Custom
    Codec ID                                 : XVID
    Codec ID/Hint                            : XviD
    Duration                                 : 1h 59mn
    Bit rate                                 : 1 502 Kbps
    Width                                    : 688 pixels
    Height                                   : 288 pixels
    Display aspect ratio                     : 2.40:1
    Frame rate                               : 24.000 fps
    Color space                              : YUV
    Chroma subsampling                       : 4:2:0
    Bit depth                                : 8 bits
    Scan type                                : Progressive
    Compression mode                         : Lossy
    Bits/(Pixel*Frame)                       : 0.316
    Stream size                              : 1.25 GiB (92%)
    Writing library                          : XviD 1.2.1 (UTC 2008-12-04)

    Audio
    ID                                       : 1
    Format                                   : MPEG Audio
    Format version                           : Version 1
    Format profile                           : Layer 3
    Codec ID                                 : 55
    Codec ID/Hint                            : MP3
    Duration                                 : 1h 59mn
    Bit rate mode                            : Constant
    Bit rate                                 : 128 Kbps
    Channel(s)                               : 2 channels
    Sampling rate                            : 48.0 KHz
    Compression mode                         : Lossy
    Stream size                              : 109 MiB (8%)
    Alignment                                : Aligned on interleaves
    Interleave, duration                     : 42 ms (1.00 video frame)
    Interleave, preload duration             : 504 ms
    Writing library                          : LAME3.98r
    Encoding settings                        : -m s -V 4 -q 2 -lowpass 17 -b 128-m s -V 4 -q 2 -lowpass 17 -b 128-m s -V 4 -q 2 -lowpass 17 -b 128


    Скриншоты:


    freetor.icu



  • Скачать Последняя запись 2 через торрент http://i67.fastpic.ru/big/2014/0915/7e/556db3a8f0edd89b95aa38152834767e.jpg Скачать, смотреть онлайн Последняя запись 2 бесплантно в хорошем качестве Описание: Рагини заперта в психиатрической больнице. Режиссер решает снять фильм о ней, снимая в тех местах, где ранее происходили ... 10 10 5
    Торрент: Зарегистрирован [2014-09-15 01:16] · скачан: 36 раз
    Статус: √ проверено
    Размер: 1.37 GB
    Как cкачать? Как скачать Последняя запись 2 через торрент | UTorrent

    28-11-2019 20:33  

    Отключить всю рекламу на сайте

    15-09-2014 05:32 Последняя запись 2 Скачать торрент  

    ...в индийских фильмах стали порнозвезды сниматься.....ну теперь я точно видел всё!!!freetor.icu



    15-09-2014 05:39 Последняя запись 2 Скачать торрент  

    а кто порнозвезда скажи :rofle:freetor.icu



    15-09-2014 06:10 Последняя запись 2 Скачать торрент  

    roma 1976 писал(а):

    а кто порнозвезда скажи :rofle:

    Санни Леонеfreetor.icu



      Дорогой пользователь! Огромная просьба, поблагодарите релизера, оцените раздачу и оставьте свои комментарий, если Вы скачали Последняя запись 2 через торрент бесплатно!
      Комментировать посты могут только пользователи прошедшие не сложную регистрацию
      Показать сообщения:    

      Последняя запись 2 через торрент
      Скачать бесплатно Последняя запись 2
      Последняя запись 2 скачать торрент
      Последняя запись 2 смотреть онлайн
      Cкачать фильм Последняя запись 2 бесплатно
      Последняя запись 2 скачать торрент в хорошем качестве
      Последняя запись 2 смотреть онлайн бесплатно в хорошем качестве


      Вы не можете начинать темы
      Вы не можете отвечать на сообщения
      Вы не можете редактировать свои сообщения
      Вы не можете удалять свои сообщения
      Вы не можете голосовать в опросах
      Вы не можете прикреплять файлы к сообщениям
      Вы можете скачивать файлы