>

5.6

iTunes

6.1

MVO

5.7

MVO

1

7.4

1 сезон

6.8

iTunes

7.2

1 сезон

13

6.7

1 сезон

8.3

RePack

30

Deluxe

pack

9.9

Лицензия

ВАЖНО

ИГРА 18+

pack

7.3

RePack

MK11

7.7

RePack

jed

7.8

RePack

fifa19

8.5

RePack

RDR2

RePack

NEED FOR SPEED™ PAYBACK

4 сезон

9 сезон

Бесстыжие 9 сезон

Все сериалы

все сериалы на PB.wtf

RePack

FAR CRY 5

Anonymous, добрый день, мы катастрофически не успеваем собрать деньги на оплату серверов, помогите нам пожалуйста 5,10,15р., для нас важна любая помощь . В качестве благодарности мы отключим Вам всю рекламу на сайте (укажите свой ник в строку Ваше имя)!

×
  
Magnet ссылка

Храм любви / Pyar Ka Mandir (К. Бапайя / K. Bapaiah) [1988, Индия, драма, семейный, DVDRip, Дубляж] freetor.icu

Храм любви через торрент freetor.icu

Размер: 1.37 GB | Добавлен: 7 лет назад | Торрент скачан:44 раза
Смотреть онлайн Храм любви | Скачать    Ребята, помогите собрать деньги на оплату серверов!!!

13-09-2014 21:04 Храм любви Скачать торрент  

Храм любви / Pyar Ka Mandir

Год выпуска: 1988
Страна: Индия
Жанр: драма, семейный
Продолжительность: 02:07:00
Перевод: Дубляж
Субтитры: Отсутствует
Режиссер: К. Бапайя / K. Bapaiah
В ролях:


Митхун Чакраборти (Vijay Kumar), Нирупа Рой (Laxmi Kumar), Мадхави (Radha Bhooljanewala), Бхарат Бхушан (Satish's dad), Сачин (Sanjay Kumar), Радж Киран (Ajay Kumar), Шома Ананд (Sapna S. Kumar), Аруна Ирани (Shanti B. Bhooljanewala), Кадер Кхан (Dr. Bhuleshwarchand Bhooljanewala), Асрани (Beggar), Рахендра Нат (Parmeshwar Shiv Rama Krishnan), Шакти Капур (Dilip)

Описание:
Мелодрама с захватывающим сюжетом, где есть и непреднамеренное убийство, и гибель детей, и похищение. Здесь честность и благородство одних сталкиваются с низостью и подлостью других. Но победит, конечно, любовь.

Рейтинг:

Качество: DVDRip
Формат: AVI
Видео кодек:DivX 5
Аудио кодек:AC3
Видео: DivX 5, 720x544 (4:3), 1343 kbps, 25 fps, 0,137 bpp
Аудио: русский / AC3 / 2.0 / 48 kHz / 192 kbps / 16 bit

General
Complete name : D:\Users\_KaisiK_\Bitcomet\КИНО\ХрамЛюбви_1988.avi
Format : AVI
Format/Info : Audio Video Interleave
File size : 1.37 GiB
Duration : 2h 7mn
Overall bit rate : 1 542 Kbps
Writing application : VirtualDubMod 1.5.4.1 (build 2178/release)
Writing library : VirtualDubMod build 2178/release

Video
ID : 0
Format : MPEG-4 Visual
Format settings, BVOP : 1
Format settings, QPel : No
Format settings, GMC : No warppoints
Format settings, Matrix : Default (H.263)
Muxing mode : Packed bitstream
Codec ID : DX50
Codec ID/Hint : DivX 5
Duration : 2h 7mn
Bit rate : 1 343 Kbps
Width : 720 pixels
Height : 544 pixels
Display aspect ratio : 4:3
Frame rate : 25.000 fps
Color space : YUV
Chroma subsampling : 4:2:0
Bit depth : 8 bits
Scan type : Progressive
Compression mode : Lossy
Bits/(Pixel*Frame) : 0.137
Stream size : 1.19 GiB (87%)
Writing library : DivX 6.1.1 (UTC 2006-02-01)

Audio
ID : 1
Format : AC-3
Format/Info : Audio Coding 3
Mode extension : CM (complete main)
Codec ID : 2000
Duration : 2h 7mn
Bit rate mode : Constant
Bit rate : 192 Kbps
Channel(s) : 2 channels
Channel positions : Front: L R
Sampling rate : 48.0 KHz
Bit depth : 16 bits
Compression mode : Lossy
Stream size : 174 MiB (12%)
Alignment : Split accross interleaves
Interleave, duration : 96 ms (2.40 video frames)
Interleave, preload duration : 96 ms
Language : Russian

[/code]
freetor.icu



Скачать Храм любви через торрент http://i4.imageban.ru/out/2014/09/14/f752ba69d03ff31a5ec42aff8be1ac6c.jpg Скачать, смотреть онлайн Храм любви бесплантно в хорошем качестве Описание: Мелодрама с захватывающим сюжетом, где есть и непреднамеренное убийство, и гибель детей, и похищение. Здесь честность и ... 10 10 5
Торрент: Зарегистрирован [2014-09-13 21:04] · скачан: 44 раз
Статус: √ проверено
Размер: 1.37 GB
Как cкачать? Как скачать Храм любви через торрент | UTorrent

28-11-2019 20:33  

Отключить всю рекламу на сайте

    Дорогой пользователь! Огромная просьба, поблагодарите релизера, оцените раздачу и оставьте свои комментарий, если Вы скачали Храм любви через торрент бесплатно!
    Комментировать посты могут только пользователи прошедшие не сложную регистрацию
    Показать сообщения:    

    Храм любви через торрент
    Скачать бесплатно Храм любви
    Храм любви скачать торрент
    Храм любви смотреть онлайн
    Cкачать фильм Храм любви бесплатно
    Храм любви скачать торрент в хорошем качестве
    Храм любви смотреть онлайн бесплатно в хорошем качестве


    Вы не можете начинать темы
    Вы не можете отвечать на сообщения
    Вы не можете редактировать свои сообщения
    Вы не можете удалять свои сообщения
    Вы не можете голосовать в опросах
    Вы не можете прикреплять файлы к сообщениям
    Вы можете скачивать файлы