Anonymous, доброй ночи, присоединяйтесь к нам в Telegram!, здесь всегда актуальный адрес сайта, оперативная поддержка и многое другое!

>

5.6

iTunes

7.4

MVO

5.7

MVO

1

7.7

1 сезон

6.8

iTunes

7.3

1 сезон

13

6.7

1 сезон

8.3

RePack

30

ULTIMATE

pack

9.9

Лицензия

ВАЖНО

ИГРА 18+

pack

7.3

RePack

MK11

7.7

RePack

jed

7.8

RePack

fifa19

8.5

RePack

RDR2

RePack

NEED FOR SPEED™ PAYBACK

4 сезон

9 сезон

Бесстыжие 9 сезон

Все сериалы

все сериалы на PB.wtf

RePack

FAR CRY 5

Anonymous, доброй ночи, мы катастрофически не успеваем собрать деньги на оплату серверов, помогите нам пожалуйста 5,10,15р., для нас важна любая помощь . В качестве благодарности мы отключим Вам всю рекламу на сайте (укажите свой ник в строку Ваше имя)!

×
  
Magnet ссылка

Афганский излом (Владимир Бортко) [1991, СССР, Италия, драма, военный, DVDRip, Оригинальный] freetor.icu

Афганский излом через торрент freetor.icu

Размер: 2.48 GB | Добавлен: 7 лет 1 мес. назад | Торрент скачан:301 раз
Смотреть онлайн Афганский излом | Скачать    Ребята, помогите собрать деньги на оплату серверов!!!

23-08-2014 06:28 Афганский излом Скачать торрент  

Афганский излом

Год выпуска: 1991
Страна: СССР, Италия
Жанр: драма, военный

Продолжительность: 02:12:26
Перевод: Оригинальный
Субтитры: Нет
Режиссер: Владимир Бортко
В ролях: Микеле Плачидо (майор Михаил Бандура), Татьяна Догилева (Катя), Михаил Жигалов (подполковник Леонид, комполка), Филипп Янковский (старший лейтенант Никита Стеклов), Алексей Серебряков (сержант Арсёнов), Нина Русланова (Таня), Хашим Рахимов (Гулахан), Кием Якуб (сын Гулахана), Артур Уваров (Иванов), Юрий Кузнецов (Щуп), Виктор Проскурин (Симаков), Сергей Исавнин (Седых)
Описание:
События фильма разворачиваются накануне вывода советских войск из Афганистана. И, казалось бы, можно уже не волноваться за судьбу наших ребят, но... война продолжается.
В подразделение десантников, которым командует майор Бандура, направляется сын высокопоставленного военного. Причина его прибытия накануне вывода войск понятна всем: парню необходимо успеть «поучаствовать» в боевых действиях и заработать награды...
Рейтинг


Качество: DVDRip
Формат: AVI
Видео кодек: DivX 5
Аудио кодек:AC3
Видео: DivX 5, 720x544 (4:3), 2479 kbps, 25 fps, 0,253 bpp
Аудио: AC3 / 2.0 / 48 kHz / 192 kbps / 16 bit

Общее
Полное имя : E:\ФИЛЬМЫ\Afganskiy_izlom.AVI
Формат : AVI
Формат/Информация : Audio Video Interleave
Профиль формата : OpenDML
Размер файла : 2,48 Гбайт
Продолжительность : 2 ч. 12 м.
Общий поток : 2677 Кбит/сек

Видео
Идентификатор : 0
Формат : MPEG-4 Visual
Параметр BVOP формата : Да
Параметр QPel формата : Нет
Параметр GMC формата : Без точки перехода
Параметр матрицы формата : Default (H.263)
Идентификатор кодека : DX50
Идентификатор кодека/Подсказка : DivX 5
Продолжительность : 2 ч. 12 м.
Битрейт : 2480 Кбит/сек
Ширина : 720 пикселей
Высота : 544 пикселя
Соотношение сторон : 4:3
Частота кадров : 25,000 кадров/сек
Цветовое пространство : YUV
Субдискретизация насыщенности : 4:2:0
Битовая глубина : 8 бит
Тип развёртки : Прогрессивная
Метод сжатия : С потерями
Бит/(Пиксели*Кадры) : 0.253
Размер потока : 2,29 Гбайт (93%)
Библиотека кодирования : DivX 6.8.5 (UTC 2009-08-20)

Аудио
Идентификатор : 1
Формат : AC-3
Формат/Информация : Audio Coding 3
Расширение режима : CM (complete main)
Параметр Endianness формата : Big
Идентификатор кодека : 2000
Продолжительность : 2 ч. 12 м.
Вид битрейта : Постоянный
Битрейт : 192 Кбит/сек
Каналы : 2 канала
Расположение каналов : Front: L R
Частота : 48,0 КГц
Битовая глубина : 16 бит
Метод сжатия : С потерями
Размер потока : 182 Мбайт (7%)
Выравнивание : Разделение по промежуткам
Продолжительность промежутка : 1000 мс. (25,00 видеокадров)
freetor.icu



Скачать Афганский излом через торрент https://pic.kartinco.top/new/img/2014-08/23/qog71vzmsi3cazqsrpc7ara9p.jpg Скачать, смотреть онлайн Афганский излом бесплантно в хорошем качестве Описание: События фильма разворачиваются накануне вывода советских войск из Афганистана. И, казалось бы, можно уже не волноваться за судьбу ... 10 10 5
Торрент: Зарегистрирован [2014-08-23 06:28] · скачан: 301 раз
Статус: √ проверено
Размер: 2.48 GB
Как cкачать? Как скачать Афганский излом через торрент | UTorrent

28-11-2019 20:33  

Отключить всю рекламу на сайте

    Дорогой пользователь! Огромная просьба, поблагодарите релизера, оцените раздачу и оставьте свои комментарий, если Вы скачали Афганский излом через торрент бесплатно!
    Комментировать посты могут только пользователи прошедшие не сложную регистрацию
    Показать сообщения:    

    Афганский излом через торрент
    Скачать бесплатно Афганский излом
    Афганский излом скачать торрент
    Афганский излом смотреть онлайн
    Cкачать фильм Афганский излом бесплатно
    Афганский излом скачать торрент в хорошем качестве
    Афганский излом смотреть онлайн бесплатно в хорошем качестве


    Вы не можете начинать темы
    Вы не можете отвечать на сообщения
    Вы не можете редактировать свои сообщения
    Вы не можете удалять свои сообщения
    Вы не можете голосовать в опросах
    Вы не можете прикреплять файлы к сообщениям
    Вы можете скачивать файлы