>

5.6

iTunes

6.1

MVO

5.7

MVO

1

7.4

1 сезон

6.8

iTunes

7.2

1 сезон

13

6.7

1 сезон

8.3

RePack

30

Deluxe

pack

9.9

Лицензия

ВАЖНО

ИГРА 18+

pack

7.3

RePack

MK11

7.7

RePack

jed

7.8

RePack

fifa19

8.5

RePack

RDR2

RePack

NEED FOR SPEED™ PAYBACK

4 сезон

9 сезон

Бесстыжие 9 сезон

Все сериалы

все сериалы на PB.wtf

RePack

FAR CRY 5

Anonymous, доброе утро, мы катастрофически не успеваем собрать деньги на оплату серверов, помогите нам пожалуйста 5,10,15р., для нас важна любая помощь . В качестве благодарности мы отключим Вам всю рекламу на сайте (укажите свой ник в строку Ваше имя)!

×
  
Magnet ссылка

Солдат / Holiday (А.Р. Муругадосс) [2014, Индия, боевик, триллер, мелодрама, DVDRip, Любительский многоголосый] freetor.icu

Солдат через торрент freetor.icu

Размер: 2.19 GB | Добавлен: 7 лет 1 мес. назад | Торрент скачан:105 раз
Смотреть онлайн Солдат | Скачать    Ребята, помогите собрать деньги на оплату серверов!!!

10-08-2014 16:11 Солдат Скачать торрент  

Солдат / Holiday


Год выпуска: 2014
Страна: Индия
Жанр:боевик, триллер, мелодрама
Продолжительность:02:40:44
Перевод:Любительский многоголосый
Субтитры : Русские, отдельным файлом на песн
Режиссер:А.Р. Муругадосс

  • В ролях:

    Акшай Кумар (Captain Viraat Bakshi), Сонакши Синха (Saiba), Говинда, Анчал Сингх, Дипендра Шарма (Asif), Aackruti Nagpal, Абхай Шукла, Фредди Дарувала, Сумит Рагхван (Mukund Deshmukh), А. Шах Аашин (Military Officer)

  • Описание:
    Солдат индийской армии Вират Бакши приезжает домой в свой отпуск. Родители хотят его сразу женить. Но сердце доблестного солдата пока не готово к любви, поэтому он сосредотачивается на помощи своему другу младшему сержанту Мукунду с расследованиями некоторых дел. И в один прекрасный день Вират сталкивается с огромной террористической сетью "спящих ячеек". Отпуск превращается в войну!

  • Мировая премьера:5 июня 2014


    Качество: DVDRip
    Формат:AVI
    Видео кодек: XviD
    Аудио кодек:MP3
    Видео: XviD, 720x304 (2.35:1), 1483 kbps, 23,976 fps, 0,283 bpp
    Аудио №1: MP3 / 2.0 / 44 kHz / 256 kbps /Русский
    Аудио №2: MP3 / 2.0 / 32 kHz / 192 kbps /Хинди


    Код:

    General
    Complete name                            : D:\Торенты\Holiday.2014.DVDRip\Holiday.2014.DVDRip.avi
    Format                                   : AVI
    Format/Info                              : Audio Video Interleave
    Format profile                           : OpenDML
    File size                                : 2.19 GiB
    Duration                                 : 2h 40mn
    Overall bit rate                         : 1 950 Kbps
    Director                                 : TmG
    Writing application                      : VirtualDubModRus 1.5.10.2 (build 2542/release)
    Writing library                          : VirtualDubMod build 2542/release

    Video
    ID                                       : 0
    Format                                   : MPEG-4 Visual
    Format profile                           : Advanced Simple@L5
    Format settings, BVOP                    : 2
    Format settings, QPel                    : No
    Format settings, GMC                     : No warppoints
    Format settings, Matrix                  : Default (MPEG)
    Muxing mode                              : Packed bitstream
    Codec ID                                 : XVID
    Codec ID/Hint                            : XviD
    Duration                                 : 2h 40mn
    Bit rate                                 : 1 484 Kbps
    Width                                    : 720 pixels
    Height                                   : 304 pixels
    Display aspect ratio                     : 2.35:1
    Frame rate                               : 23.976 fps
    Color space                              : YUV
    Chroma subsampling                       : 4:2:0
    Bit depth                                : 8 bits
    Scan type                                : Progressive
    Compression mode                         : Lossy
    Bits/(Pixel*Frame)                       : 0.283
    Stream size                              : 1.67 GiB (76%)
    Writing library                          : XviD 1.2.1 (UTC 2008-12-04)

    Audio #1
    ID                                       : 1
    Format                                   : MPEG Audio
    Format version                           : Version 1
    Format profile                           : Layer 3
    Codec ID                                 : 55
    Codec ID/Hint                            : MP3
    Duration                                 : 2h 40mn
    Bit rate mode                            : Constant
    Bit rate                                 : 256 Kbps
    Channel(s)                               : 2 channels
    Sampling rate                            : 44.1 KHz
    Compression mode                         : Lossy
    Stream size                              : 294 MiB (13%)
    Alignment                                : Split accross interleaves
    Interleave, duration                     : 42 ms (1.00 video frame)
    Interleave, preload duration             : 500 ms

    Audio #2
    ID                                       : 2
    Format                                   : MPEG Audio
    Format version                           : Version 1
    Format profile                           : Layer 3
    Codec ID                                 : 55
    Codec ID/Hint                            : MP3
    Duration                                 : 2h 40mn
    Bit rate mode                            : Constant
    Bit rate                                 : 192 Kbps
    Channel(s)                               : 2 channels
    Sampling rate                            : 32.0 KHz
    Compression mode                         : Lossy
    Stream size                              : 221 MiB (10%)
    Alignment                                : Aligned on interleaves
    Interleave, duration                     : 42 ms (1.00 video frame)
    Interleave, preload duration             : 504 ms
    Writing library                          : LAME3.99r
    Encoding settings                        : -m s -V 4 -q 2 -lowpass 16 -b 192

    Скриншоты:

    Каталог Новинок (Фильмы-трейлеры, Игры, Сериалы, Мультфильмы)

    © Оформление by Raven
    freetor.icu



  • Скачать Солдат через торрент https://pic1.kartinco.top/images/61/stazu.jpg Скачать, смотреть онлайн Солдат бесплантно в хорошем качестве Описание:Солдат индийской армии Вират Бакши приезжает домой в свой отпуск. Родители хотят его сразу женить. Но сердце доблестного солдата ... 10 10 7
    Торрент: Зарегистрирован [2014-08-10 16:11] · скачан: 105 раз
    Статус: √ проверено
    Размер: 2.19 GB
    Как cкачать? Как скачать Солдат через торрент | UTorrent

    % Раздел Тема Автор DL S | L
    T Релизы по Парсеру [Игры, Сериалы и Фильмы и другое...] [ 2.91 GB ] 13 часов: Тайные солдаты Бенгази / 13 Hours BDRip-AVC от HELLYWOOD / smaster Скачать
    2 | 0

    28-11-2019 20:33  

    Отключить всю рекламу на сайте

    10-08-2014 16:23 Солдат Скачать торрент  

    Песни и танцы и супер эффэкттЫfreetor.icu



    10-08-2014 18:34 Солдат Скачать торрент  

    Тут тоже будут петь и плясать?(между драками)freetor.icu



    10-08-2014 18:39 Солдат Скачать торрент  

    Особо прикалывало как они дерутся....всмысле звуков удара по морде..freetor.icu



    10-08-2014 18:43 Солдат Скачать торрент  

    Зита и Гита...Рам и Шам наверно покруче будутfreetor.icu



      Дорогой пользователь! Огромная просьба, поблагодарите релизера, оцените раздачу и оставьте свои комментарий, если Вы скачали Солдат через торрент бесплатно!
      Комментировать посты могут только пользователи прошедшие не сложную регистрацию
      Показать сообщения:    

      Солдат через торрент
      Скачать бесплатно Солдат
      Солдат скачать торрент
      Солдат смотреть онлайн
      Cкачать фильм Солдат бесплатно
      Солдат скачать торрент в хорошем качестве
      Солдат смотреть онлайн бесплатно в хорошем качестве


      Вы не можете начинать темы
      Вы не можете отвечать на сообщения
      Вы не можете редактировать свои сообщения
      Вы не можете удалять свои сообщения
      Вы не можете голосовать в опросах
      Вы не можете прикреплять файлы к сообщениям
      Вы можете скачивать файлы