>

8.4

Хороший звук

6.1

MVO

6.4

Line & MVO

1

7.4

1 сезон

6.8

iTunes

7.2

1 сезон

13

6.7

1 сезон

8.3

RePack

30

Deluxe

pack

9.9

Лицензия

ВАЖНО

ИГРА 18+

pack

7.3

RePack

MK11

7.7

RePack

jed

7.8

RePack

fifa19

8.5

RePack

RDR2

RePack

NEED FOR SPEED™ PAYBACK

4 сезон

9 сезон

Бесстыжие 9 сезон

Все сериалы

все сериалы на PB.wtf

RePack

FAR CRY 5

Anonymous, доброе утро, мы катастрофически не успеваем собрать деньги на оплату серверов, помогите нам пожалуйста 5,10,15р., для нас важна любая помощь . В качестве благодарности мы отключим Вам всю рекламу на сайте (укажите свой ник в строку Ваше имя)!

×
  
Magnet ссылка

История ужасов / Horror Story (Аюш Рэйна / Ayush Raina) [2013, Индия, ужасы, DVDRip, Любительский (двухголосый)[den904, DeadSno] freetor.icu

История ужасов через торрент freetor.icu

Размер: 1.48 GB | Добавлен: 7 лет 1 мес. назад | Торрент скачан:93 раза
Смотреть онлайн История ужасов | Скачать    Ребята, помогите собрать деньги на оплату серверов!!!

02-08-2014 13:45 История ужасов Скачать торрент  

История ужасов / Horror Story


Год выпуска: 2013
Страна: Индия
Жанр:ужасы
Продолжительность:01:31:57
Перевод:Любительский (двухголосый)[den904, DeadSno]
Режиссер:Аюш Рэйна / Ayush Raina

  • В ролях:
    Апарна Баджпаи (Maggie), Равиш Десай (Mangesh), Каран Кундра (Neel), Нандини Ваид (Sonia), Хассан Зайди (Samrat)

  • Описание:
    Когда семеро молодых людей осмелились провести ночь в печально известном отеле, они и не подозревали, что эта ночь может стать для них последней...

  • Мировая премьера:13 сентября 2013


      Качество: DVDRip
      Формат:AVI
      Видео кодек: XviD
      Аудио кодек:AC3
      Видео: 720x304 (2.35:1), 1651 kbps, 23,976 fps
      Аудио №1: 2.0/ 48 kHz/ 192 kbps/ Русский
      Аудио №2: 5.1/ 48 kHz/ 448 kbps/ Хинди

    Код:

    General
    Complete name                            : D:\Торенты\Horror.Story.2013.DVDRip.1500mb.avi
    Format                                   : AVI
    Format/Info                              : Audio Video Interleave
    File size                                : 1.48 GiB
    Duration                                 : 1h 31mn
    Overall bit rate                         : 2 306 Kbps
    Writing application                      : VirtualDubModRus 1.5.10.2 (build 2542/release)
    Writing library                          : VirtualDubMod build 2542/release

    Video
    ID                                       : 0
    Format                                   : MPEG-4 Visual
    Format profile                           : Advanced Simple@L5
    Format settings, BVOP                    : 2
    Format settings, QPel                    : No
    Format settings, GMC                     : No warppoints
    Format settings, Matrix                  : Custom
    Codec ID                                 : XVID
    Codec ID/Hint                            : XviD
    Duration                                 : 1h 31mn
    Bit rate                                 : 1 652 Kbps
    Width                                    : 720 pixels
    Height                                   : 304 pixels
    Display aspect ratio                     : 2.35:1
    Frame rate                               : 23.976 fps
    Color space                              : YUV
    Chroma subsampling                       : 4:2:0
    Bit depth                                : 8 bits
    Scan type                                : Progressive
    Compression mode                         : Lossy
    Bits/(Pixel*Frame)                       : 0.315
    Stream size                              : 1.06 GiB (72%)
    Writing library                          : XviD 1.2.1 (UTC 2008-12-04)

    Audio #1
    ID                                       : 1
    Format                                   : AC-3
    Format/Info                              : Audio Coding 3
    Mode extension                           : CM (complete main)
    Codec ID                                 : 2000
    Duration                                 : 1h 31mn
    Bit rate mode                            : Constant
    Bit rate                                 : 192 Kbps
    Channel(s)                               : 2 channels
    Channel positions                        : Front: L R
    Sampling rate                            : 48.0 KHz
    Bit depth                                : 16 bits
    Compression mode                         : Lossy
    Stream size                              : 126 MiB (8%)
    Alignment                                : Split accross interleaves
    Interleave, duration                     : 42 ms (1.00 video frame)
    Interleave, preload duration             : 500 ms

    Audio #2
    ID                                       : 2
    Format                                   : AC-3
    Format/Info                              : Audio Coding 3
    Mode extension                           : CM (complete main)
    Codec ID                                 : 2000
    Duration                                 : 1h 31mn
    Bit rate mode                            : Constant
    Bit rate                                 : 448 Kbps
    Channel(s)                               : 6 channels
    Channel positions                        : Front: L C R, Side: L R, LFE
    Sampling rate                            : 48.0 KHz
    Bit depth                                : 16 bits
    Compression mode                         : Lossy
    Stream size                              : 295 MiB (19%)
    Alignment                                : Split accross interleaves
    Interleave, duration                     : 42 ms (1.00 video frame)
    Interleave, preload duration             : 500 ms

    Скриншоты:

    Каталог Новинок (Фильмы-трейлеры, Игры, Сериалы, Мультфильмы)

    © Оформление by Raven
    freetor.icu



  • Скачать История ужасов через торрент http://i65.fastpic.ru/big/2014/0802/7d/cad084ab72be9724f3bed3aa269da37d.jpg Скачать, смотреть онлайн История ужасов бесплантно в хорошем качестве Описание:Когда семеро молодых людей осмелились провести ночь в печально известном отеле, они и не подозревали, что эта ночь может стать для ... 10 10 10
    Торрент: Зарегистрирован [2014-08-02 13:45] · скачан: 93 раз
    Статус: √ проверено
    Размер: 1.48 GB
    Как cкачать? Как скачать История ужасов через торрент | UTorrent

    % Раздел Тема Автор DL S | L
    Американская история ужасов [ 3.61 GB ] Американская история ужасов / American Horror Story / Сезон: 10 / Серии: 1-4 из 10 [2021 WEB-DLRip-AVC] MVO [LostFilm] от MediaBit Lithuania Скачать
    13 | 27
    Американская история ужасов [ 3.15 GB ] Американская история ужасов: Двойной сеанс / American Horror Story: Double Feature / Сезон: 10 / Серия: 1- из 10 [2021 WEB-DL 1080p] MVO [LostFilm] bober100 Скачать
    8 | 0
    Американская история ужасов [ 1.51 GB ] Американская история ужасов / American Horror Story / Сезон: 10 / Серия: 1- из 10 [2021 WEB-DL 720p] MVO [LostFilm] bober100 Скачать
    1 | 0
    Американская история ужасов [ 4.78 GB ] Американская история ужасов / American Horror Story / Сезон: 10 / Серия: 1-4 из 10 [2021 WEBRip 1080p] MVO [TVShows] bober100 Скачать
    1 | 1
    Американская история ужасов [ 7.55 GB ] Американские истории ужасов / American Horror Stories / Сезон: 1 / Серии: 1-6 из 7 [2021 WEB-DL 1080p] 3xMVO [LostFilm NewStudio TVShows] bober100 Скачать
    1 | 0
    T Фильмы 2021 (Звук TS, Cam, VO, DVO) [ 1.44 GB ] Классическая история ужасов / A Classic Horror Story [2021 WEBRip-AVC] DVO [Pazl Voice] от MediaBit Lithuania Скачать
    2 | 0
    Фильмы (WEB-DL 720p, 1080p) [ 3.64 GB ] Классическая история ужасов / A Classic Horror Story [2021 WEB-DL 1080p] [MVO] killermax2013 Скачать
    2 | 0

    28-11-2019 20:33  

    Отключить всю рекламу на сайте

      Дорогой пользователь! Огромная просьба, поблагодарите релизера, оцените раздачу и оставьте свои комментарий, если Вы скачали История ужасов через торрент бесплатно!
      Комментировать посты могут только пользователи прошедшие не сложную регистрацию
      Показать сообщения:    

      История ужасов через торрент
      Скачать бесплатно История ужасов
      История ужасов скачать торрент
      История ужасов смотреть онлайн
      Cкачать фильм История ужасов бесплатно
      История ужасов скачать торрент в хорошем качестве
      История ужасов смотреть онлайн бесплатно в хорошем качестве


      Вы не можете начинать темы
      Вы не можете отвечать на сообщения
      Вы не можете редактировать свои сообщения
      Вы не можете удалять свои сообщения
      Вы не можете голосовать в опросах
      Вы не можете прикреплять файлы к сообщениям
      Вы можете скачивать файлы