>

8.4

Хороший звук

6.1

MVO

6.4

Line & MVO

1

7.4

1 сезон

6.8

iTunes

7.2

1 сезон

13

6.7

1 сезон

8.3

RePack

30

Deluxe

pack

9.9

Лицензия

ВАЖНО

ИГРА 18+

pack

7.3

RePack

MK11

7.7

RePack

jed

7.8

RePack

fifa19

8.5

RePack

RDR2

RePack

NEED FOR SPEED™ PAYBACK

4 сезон

9 сезон

Бесстыжие 9 сезон

Все сериалы

все сериалы на PB.wtf

RePack

FAR CRY 5

Anonymous, доброе утро, мы катастрофически не успеваем собрать деньги на оплату серверов, помогите нам пожалуйста 5,10,15р., для нас важна любая помощь . В качестве благодарности мы отключим Вам всю рекламу на сайте (укажите свой ник в строку Ваше имя)!

×
  
Magnet ссылка

Вне закона / Gunday (Али Аббас Зафар / Ali Abbas Zafar) [2014, Индия, боевик, триллер, драма, HDRip, Многоголосый, закадровый] freetor.icu

Вне закона через торрент freetor.icu

Размер: 2.06 GB | Добавлен: 7 лет 2 мес. назад | Торрент скачан:181 раз
Смотреть онлайн Вне закона | Скачать    Ребята, помогите собрать деньги на оплату серверов!!!

01-07-2014 09:03 Вне закона Скачать торрент  

Вне закона / Gunday


Год выпуска: 2014
Страна: Индия
Жанр:боевик, триллер, драма, мелодрама, криминал
Продолжительность:02:32:06
Перевод:Многоголосый, закадровый [ICG]

Субтитры: Нет
Режиссер:Али Аббас Зафар / Ali Abbas Zafar

  • В ролях:

    Ранвир Сингх (Bikram), Арджун Капур (Bala), Приянка Чопра (Nandita), Ирфан Кхан (Satya), Darshan Gurjar (Young Bikram), Jayesh V. Kardak (Young Bala), Дип Радж Рана (Dibakar), Саурабх Шукла (Kale kaka)

  • Описание:
    История о жизни Бикрама и Бала, которым было всего по 12 лет, когда они стали свидетелями войны 1971-го года, в результате которой образовался Бангладеш. Чтобы спасти свою жизнь они бежали в Калькутту. С годами их дружба стала сильнее, и они превратились в самых влиятельных бандитов.

  • Мировая премьера:13 февраля 2014


      Качество: HDRip
      Формат: AVI
      Видео кодек: XviD
      Аудио кодек:AC3
      Видео: xvid, 720x304 (2.35:1), 1668 kbps, 23,976 fps, 0,318 bpp
      Аудио: AC3 / 2.0 / 48 kHz / 256 kbps / 16 bit


    Код:

    General
    Complete name                            : D:\Торенты\Вне закона.2014.HDRip.avi
    Format                                   : AVI
    Format/Info                              : Audio Video Interleave
    Format profile                           : OpenDML
    File size                                : 2.06 GiB
    Duration                                 : 2h 32mn
    Overall bit rate                         : 1 935 Kbps
    Writing application                      : Lavf51.12.1

    Video
    ID                                       : 0
    Format                                   : xvid
    Codec ID                                 : xvid
    Duration                                 : 2h 32mn
    Bit rate                                 : 1 668 Kbps
    Width                                    : 720 pixels
    Height                                   : 304 pixels
    Display aspect ratio                     : 2.35:1
    Frame rate                               : 23.976 fps
    Bits/(Pixel*Frame)                       : 0.318
    Stream size                              : 1.77 GiB (86%)

    Audio
    ID                                       : 1
    Format                                   : AC-3
    Format/Info                              : Audio Coding 3
    Mode extension                           : CM (complete main)
    Codec ID                                 : 2000
    Duration                                 : 2h 32mn
    Bit rate mode                            : Constant
    Bit rate                                 : 256 Kbps
    Channel(s)                               : 2 channels
    Channel positions                        : Front: L R
    Sampling rate                            : 48.0 KHz
    Bit depth                                : 16 bits
    Compression mode                         : Lossy
    Stream size                              : 279 MiB (13%)
    Alignment                                : Aligned on interleaves
    Interleave, duration                     : 32 ms (0.77 video frame)
    Interleave, preload duration             : 32 ms

    Скриншоты:

    Каталог Новинок (Фильмы-трейлеры, Игры, Сериалы, Мультфильмы)

    © Оформление by Raven
    freetor.icu



  • Скачать Вне закона через торрент http://i62.fastpic.ru/big/2014/0701/1a/11bce51367aca1a7322592f18c7e951a.jpg Скачать, смотреть онлайн Вне закона бесплантно в хорошем качестве Описание:История о жизни Бикрама и Бала, которым было всего по 12 лет, когда они стали свидетелями войны 1971-го года, в результате которой ... 9.9 10 8
    Торрент: Зарегистрирован [2014-07-01 09:03] · скачан: 181 раз
    Статус: √ проверено
    Размер: 2.06 GB
    Как cкачать? Как скачать Вне закона через торрент | UTorrent

    28-11-2019 20:33  

    Отключить всю рекламу на сайте

    08-07-2014 07:26 Вне закона Скачать торрент  

    Фильм хороший.freetor.icu



      Дорогой пользователь! Огромная просьба, поблагодарите релизера, оцените раздачу и оставьте свои комментарий, если Вы скачали Вне закона через торрент бесплатно!
      Комментировать посты могут только пользователи прошедшие не сложную регистрацию
      Показать сообщения:    

      Вне закона через торрент
      Скачать бесплатно Вне закона
      Вне закона скачать торрент
      Вне закона смотреть онлайн
      Cкачать фильм Вне закона бесплатно
      Вне закона скачать торрент в хорошем качестве
      Вне закона смотреть онлайн бесплатно в хорошем качестве


      Вы не можете начинать темы
      Вы не можете отвечать на сообщения
      Вы не можете редактировать свои сообщения
      Вы не можете удалять свои сообщения
      Вы не можете голосовать в опросах
      Вы не можете прикреплять файлы к сообщениям
      Вы можете скачивать файлы