Anonymous, добрый вечер, присоединяйтесь к нам в Telegram!, здесь всегда актуальный адрес сайта, оперативная поддержка и многое другое!

>

5.6

iTunes

7.4

iTunes

7.9

MVO

1

7.7

1 сезон

6.8

iTunes

7.3

1 сезон

13

6.7

1 сезон

8.3

RePack

30

PREMIUM

pack

9.9

Лицензия

ВАЖНО

ИГРА 18+

pack

7.3

RePack

MK11

7.7

RePack

jed

7.8

RePack

fifa19

8.5

RePack

RDR2

RePack

NEED FOR SPEED™ PAYBACK

4 сезон

9 сезон

Бесстыжие 9 сезон

Все сериалы

все сериалы на PB.wtf

RePack

FAR CRY 5

Anonymous, добрый вечер, мы катастрофически не успеваем собрать деньги на оплату серверов, помогите нам пожалуйста 5,10,15р., для нас важна любая помощь . В качестве благодарности мы отключим Вам всю рекламу на сайте (укажите свой ник в строку Ваше имя)!

×
  
Magnet ссылка

Труффальдино из Бергамо (Владимир Воробьев) [1976 г., комедия, мелодрама, мюзикл, DVDRip-AVC] freetor.icu

Труффальдино из Бергамо через торрент freetor.icu

Размер: 1.99 GB | Добавлен: 7 лет 4 мес. назад | Торрент скачан:129 раз
Смотреть онлайн Труффальдино из Бергамо | Скачать    Ребята, помогите собрать деньги на оплату серверов!!!

13-06-2014 21:58 Труффальдино из Бергамо Скачать торрент  

Труффальдино из Бергамо

Год выпуска: 1976
Страна: СССР, Ленфильм
Жанр: Мюзикл, мелодрама, комедия
Длительность: 1:05:40 + 1:03:45
Режиссёр: Владимир Воробьев
Сценарий:Акиба Гольбурт, Владимир Воробьев, Карло Гольдони
Серий: 2
Перевод: Не требуется
Субтитры: Нет


Возраст : 12+ ,зрителям, достигшим 12 лет

В ролях: Константин Райкин, Наталья Гундарева, Валентина Кособуцкая, Виктор Костецкий, Лев Петропавловский, Елена Дриацкая, Виктор Кривонос, Игорь Соркин, Александр Березняк, Евгений Тиличеев

Описание: Веселый и неутомимый балагур Труффальдино нанимается в услужение сразу к двум господам, живущим в разных номерах одного и того же отеля. Вскоре выяснится, что оба хозяина не только знакомы, но даже были в прошлом женихом и невестой, но до поры не знают, что другой находится рядом. А неутомимый Труффальдино успевает обслужить всех, да и себе найти невесту…

Рип от: igorutka
Качество: DVDRip-AVC
Формат: MP4
Видео кодек: AVC
Аудио кодек: MP3
Видео: 720x540(4:3), 2000 kbps, 25 fps, 0.20 bit/pixel
Аудио: MPEG Layer 3, 2 ch, 192 kbps, 48 khz

Общее
Полное имя : H:\Truffaldino iz Bergamo\Truffaldino - 1.mp4
Формат : MPEG-4
Профиль формата : Base Media / Version 2
Идентификатор кодека : mp42
Размер файла : 1,01 Гбайт
Продолжительность : 1 ч. 5 м.
Общий поток : 2193 Кбит/сек
Дата кодирования : UTC 2014-06-13 19:07:20
Дата пометки : UTC 2014-06-13 21:26:57

Видео
Идентификатор : 1
Формат : AVC
Формат/Информация : Advanced Video Codec
Профиль формата : High@L3.0
Параметр CABAC формата : Да
Параметр ReFrames формата : 3 кадра
Идентификатор кодека : avc1
Идентификатор кодека/Информация : Advanced Video Coding
Продолжительность : 1 ч. 5 м.
Вид битрейта : Переменный
Битрейт : 2000 Кбит/сек
Ширина : 720 пикселей
Высота : 540 пикселей
Соотношение сторон : 4:3
Режим частоты кадров : Постоянный
Частота кадров : 25,000 кадров/сек
Цветовое пространство : YUV
Субдискретизация насыщенности : 4:2:0
Битовая глубина : 8 бит
Тип развёртки : Прогрессивная
Бит/(Пиксели*Кадры) : 0.206
Размер потока : 939 Мбайт (91%)
Язык : English
Дата кодирования : UTC 2014-06-13 19:07:20
Дата пометки : UTC 2014-06-13 21:26:57

Аудио
Идентификатор : 2
Формат : MPEG Audio
Версия формата : Version 1
Профиль формата : Layer 3
Идентификатор кодека : 6B
Продолжительность : 1 ч. 5 м.
Вид битрейта : Постоянный
Битрейт : 192 Кбит/сек
Каналы : 2 канала
Частота : 48,0 КГц
Метод сжатия : С потерями
Размер потока : 90,2 Мбайт (9%)
Библиотека кодирования : LAME3.98.2
Язык : English
Дата кодирования : UTC 2014-06-13 19:07:20
Дата пометки : UTC 2014-06-13 21:26:52

freetor.icu



Скачать Труффальдино из Бергамо через торрент https://pic1.kartinco.top/images/61/upa2f.jpg Скачать, смотреть онлайн Труффальдино из Бергамо бесплантно в хорошем качестве Описание: Веселый и неутомимый балагур Труффальдино нанимается в услужение сразу к двум господам, живущим в разных номерах одного и того же ... 10 10 12
Info! Серебряная раздача, засчитывается только 50% скачанного.
Торрент: Зарегистрирован [2014-06-13 21:58] · скачан: 129 раз
Статус: √ проверено
Размер: 1.99 GB
Как cкачать? Как скачать Труффальдино из Бергамо через торрент | UTorrent

28-11-2019 20:33  

Отключить всю рекламу на сайте

    Дорогой пользователь! Огромная просьба, поблагодарите релизера, оцените раздачу и оставьте свои комментарий, если Вы скачали Труффальдино из Бергамо через торрент бесплатно!
    Комментировать посты могут только пользователи прошедшие не сложную регистрацию
    Показать сообщения:    

    Труффальдино из Бергамо через торрент
    Скачать бесплатно Труффальдино из Бергамо
    Труффальдино из Бергамо скачать торрент
    Труффальдино из Бергамо смотреть онлайн
    Cкачать фильм Труффальдино из Бергамо бесплатно
    Труффальдино из Бергамо скачать торрент в хорошем качестве
    Труффальдино из Бергамо смотреть онлайн бесплатно в хорошем качестве


    Вы не можете начинать темы
    Вы не можете отвечать на сообщения
    Вы не можете редактировать свои сообщения
    Вы не можете удалять свои сообщения
    Вы не можете голосовать в опросах
    Вы не можете прикреплять файлы к сообщениям
    Вы можете скачивать файлы