Anonymous, доброй ночи, присоединяйтесь к нам в Telegram!, здесь всегда актуальный адрес сайта, оперативная поддержка и многое другое!

>

5.6

iTunes

7.4

MVO

5.7

MVO

1

7.7

1 сезон

6.8

iTunes

7.3

1 сезон

13

6.7

1 сезон

8.3

RePack

30

ULTIMATE

pack

9.9

Лицензия

ВАЖНО

ИГРА 18+

pack

7.3

RePack

MK11

7.7

RePack

jed

7.8

RePack

fifa19

8.5

RePack

RDR2

RePack

NEED FOR SPEED™ PAYBACK

4 сезон

9 сезон

Бесстыжие 9 сезон

Все сериалы

все сериалы на PB.wtf

RePack

FAR CRY 5

Anonymous, доброй ночи, мы катастрофически не успеваем собрать деньги на оплату серверов, помогите нам пожалуйста 5,10,15р., для нас важна любая помощь . В качестве благодарности мы отключим Вам всю рекламу на сайте (укажите свой ник в строку Ваше имя)!

×
  
Magnet ссылка

Д`Артаньян и три мушкетера [3 серии 3] (Георгий Юнгвальд-Хилькевич) [1979 г., Мюзикл, приключения, история, DVDRip] freetor.icu

Д`Артаньян и три мушкетера через торрент freetor.icu

Размер: 3.28 GB | Добавлен: 7 лет 4 мес. назад | Торрент скачан:139 раз
Смотреть онлайн Д`Артаньян и три мушкетера | Скачать    Ребята, помогите собрать деньги на оплату серверов!!!

09-06-2014 18:10 Д`Артаньян и три мушкетера Скачать торрент  

Информация о фильме:
Название: Д`Артаньян и три мушкетера

Год выпуска: 1979
Страна: СССР
Студия: Одесская киностудия
Жанр: Мюзикл, приключения, история

Режиссёр: Георгий Юнгвальд-Хилькевич
В ролях: Михаил Боярский, Вениамин Смехов, Игорь Старыгин, Валентин Смирнитский, Ирина Алферова, Алиса Фрейндлих, Маргарита Терехова, Олег Табаков, Лев Дуров, Александр Трофимо

Серий: 3 из 3
Продолжительность: 04:08:35
Перевод: Не требуется
Субтитры: Нет

Описание:
Четверо друзей-мушкетеров спасают честь королевы Франции, вступают в единоборство со всесильным кардиналом Ришелье и коварной Миледи, а главное — наслаждаются жизнью.



Релиз от: R.G.RealMT

Файл:
Качество: DVDRip
Формат: AVI
Видео кодек: XVID
Аудио кодек: MP3
Видео: ~1750 kbps, 720x540, 25 fps
Аудио: 128 kbps, 2 ch, 44,1 khz

Скриншоты:
General
Complete name : D:\Фильмы\720\Film.R.G.RealMT\D`Artan'jan\D`Artan'jan 1.avi
Format : AVI
Format/Info : Audio Video Interleave
File size : 1.13 GiB
Duration : 1h 25mn
Overall bit rate : 1 890 Kbps

Video
ID : 0
Format : MPEG-4 Visual
Format profile : Advanced Simple@L4
Format settings, BVOP : No
Format settings, QPel : No
Format settings, GMC : No warppoints
Format settings, Matrix : Default (H.263)
Codec ID : XVID
Codec ID/Hint : XviD
Duration : 1h 25mn
Bit rate : 1 750 Kbps
Width : 720 pixels
Height : 540 pixels
Display aspect ratio : 4:3
Frame rate : 25.000 fps
Color space : YUV
Chroma subsampling : 4:2:0
Bit depth : 8 bits
Scan type : Progressive
Compression mode : Lossy
Bits/(Pixel*Frame) : 0.180
Stream size : 1.04 GiB (93%)

Audio
ID : 1
Format : MPEG Audio
Format version : Version 1
Format profile : Layer 3
Codec ID : 55
Codec ID/Hint : MP3
Duration : 1h 25mn
Bit rate mode : Constant
Bit rate : 128 Kbps
Channel count : 2 channels
Sampling rate : 44.1 KHz
Compression mode : Lossy
Stream size : 78.2 MiB (7%)
Alignment : Split accross interleaves
Interleave, duration : 26 ms (0.65 video frame)
Writing library : LAME3.98.2
freetor.icu



Скачать Д`Артаньян и три мушкетера через торрент http://i61.fastpic.ru/big/2014/0608/d3/0f292eb7a71004c0c7cc468a7c34f6d3.gif Скачать, смотреть онлайн Д`Артаньян и три мушкетера [3 серии 3] бесплантно в хорошем качестве Описание: Четверо друзей-мушкетеров спасают честь королевы Франции, вступают в единоборство со всесильным кардиналом Ришелье и коварной ... 10 10 8
Info! Золотая раздача, скачанное не засчитывается.
Торрент: Зарегистрирован [2014-06-09 18:10] · скачан: 139 раз
Статус: √ проверено
Размер: 3.28 GB
Как cкачать? Как скачать Д`Артаньян и три мушкетера через торрент | UTorrent

% Раздел Тема Автор DL S | L
Фильмы с авторской озвучкой [ 1.46 GB ] Д'Артаньян и три мушкетера. 300 лет спустя / Реальные кабаны / Wild Hogs [2007 Смешной перевод HDRip] [AVO] killermax2013 Скачать
1 | 0
Наши фильмы (HD, WEB-DL 720p, 1080p) [ 14.41 GB ] Д`Артаньян и три мушкетёра [1979 Музыкальный HDTV1080p] Оригинал Бумер Скачать
1 | 0
Кино СССР [ 3.64 GB ] Д`Артаньян и три мушкетера [3 серии 3] [1979 Мюзикл история DVDRip] Azazel Скачать
1 | 0

28-11-2019 20:33  

Отключить всю рекламу на сайте

09-06-2014 18:19 Д`Артаньян и три мушкетера Скачать торрент  

Тысяча чертей! Молодой Боярский !freetor.icu



    Дорогой пользователь! Огромная просьба, поблагодарите релизера, оцените раздачу и оставьте свои комментарий, если Вы скачали Д`Артаньян и три мушкетера через торрент бесплатно!
    Комментировать посты могут только пользователи прошедшие не сложную регистрацию
    Показать сообщения:    

    Д`Артаньян и три мушкетера через торрент
    Скачать бесплатно Д`Артаньян и три мушкетера
    Д`Артаньян и три мушкетера скачать торрент
    Д`Артаньян и три мушкетера смотреть онлайн
    Cкачать фильм Д`Артаньян и три мушкетера бесплатно
    Д`Артаньян и три мушкетера скачать торрент в хорошем качестве
    Д`Артаньян и три мушкетера смотреть онлайн бесплатно в хорошем качестве


    Вы не можете начинать темы
    Вы не можете отвечать на сообщения
    Вы не можете редактировать свои сообщения
    Вы не можете удалять свои сообщения
    Вы не можете голосовать в опросах
    Вы не можете прикреплять файлы к сообщениям
    Вы можете скачивать файлы