Anonymous, добрый вечер, присоединяйтесь к нам в Telegram!, здесь всегда актуальный адрес сайта, оперативная поддержка и многое другое!

>

5.6

iTunes

7.4

iTunes

7.9

MVO

1

7.7

1 сезон

6.8

iTunes

7.3

1 сезон

13

6.7

1 сезон

8.3

RePack

30

ULTIMATE

pack

9.9

Лицензия

ВАЖНО

ИГРА 18+

pack

7.3

RePack

MK11

7.7

RePack

jed

7.8

RePack

fifa19

8.5

RePack

RDR2

RePack

NEED FOR SPEED™ PAYBACK

4 сезон

9 сезон

Бесстыжие 9 сезон

Все сериалы

все сериалы на PB.wtf

RePack

FAR CRY 5

Anonymous, добрый вечер, мы катастрофически не успеваем собрать деньги на оплату серверов, помогите нам пожалуйста 5,10,15р., для нас важна любая помощь . В качестве благодарности мы отключим Вам всю рекламу на сайте (укажите свой ник в строку Ваше имя)!

×
  
Magnet ссылка

На войне как на войне (Виктор Трегубович) [1968, СССР, Военный, драма, DVDRip] freetor.icu

На войне как на войне через торрент freetor.icu

Размер: 1.47 GB | Добавлен: 7 лет 5 мес. назад | Торрент скачан:205 раз
Смотреть онлайн На войне как на войне | Скачать    Ребята, помогите собрать деньги на оплату серверов!!!

07-05-2014 16:15 На войне как на войне Скачать торрент  

На войне как на войне
Год выпуска: 1968
Страна: СССР
Жанр: Военный, драма
Продолжительность: 01:25:00
Перевод: Оригинал
Субтитры: Нет
Режиссер: Виктор Трегубович

В ролях: Михаил Кононов, Олег Борисов, Виктор Павлов, Фёдор Одиноков, Борис Табаровский, Михаил Глузский, Петр Любешкин, Валентин Зубков, Борис Аракелов, Герман Колушкин, Пётр Горин, Борис Сичкин, Юрий Дубровин, Ирина Замотина, Дмитрий Махнич, Владимир Карпенко, Владимир Маляр

Описание:

Идет Великая Отечественная война. Наши войска освобождают Украину, правый берег Днепра. Младший лейтенант Александр Малешкин, свежеиспеченный выпускник военного училища, до этого насидевшийся в резерве, принимает под своё командование экипаж "самоходки" СУ-100. Все подчиненные Малешкина старше его по возрасту и намного опытнее. Авторитет молодого командира на каждом шагу подвергается испытаниям. Кроме того, Малешкиным очень недоволен командир батареи, он то и дело грозится снять нерасторопного новичка с командования. В экипаже Сан Саныча и впрямь постоянно случаются разные неприятности: то в машине обнаружится боевая граната с выпавшей чекой, то случится неисправность как раз в момент выхода полка на марш...


Качество видео: DVDRip
Формат видео: AVI
Видеокодек: XviD
Аудиокодек: AC3
Видео: MPEG4, XviD, 704x304 (2.35:1), 25.000 fps, 2 270 Kbps (0.424 bit/pixel)
Аудио: AC-3, 48.0 KHz, 2 ch, 192 Kbps, CBR

Сценарий: Виктор Трегубович, Виктор Курочкин
Оператор: Евгений Мезенцев
Художники: Семен Малкин, Георгий Кропачев
Композитор: Георгий Портнов

General
Полное имя : D:\Video\Na voyne kak na voyne\Na voyne kak na voyne.avi
Формат : AVI
Формат/Информация : Audio Video Interleave
Размер файла : 1.47 GiB
Продолжительность : 1h 25mn
Общий поток : 2 472 Kbps
Программа кодирования : VirtualDubMod 1.5.10.3 | www.virtualdub-fr.org || (build 2550/release)
Библиотека кодирования : VirtualDubMod build 2550/release

Video
Идентификатор : 0
Формат : MPEG-4 Visual
Профиль формата : Advanced Simple@L5
Параметр BVOP формата : 1
Параметр QPel формата : No
Параметр GMC формата : No warppoints
Параметр матрицы формата : Custom
Идентификатор кодека : XVID
Идентификатор кодека/Подсказка : XviD
Продолжительность : 1h 25mn
Битрейт : 2 270 Kbps
Ширина : 704 pixels
Высота : 304 pixels
Соотношение сторон : 2.35:1
Частота кадров : 25.000 fps
Цветовое пространство : YUV
Субдискретизация насыщенности : 4:2:0
Битовая глубина : 8 bits
Тип развёртки : Progressive
Метод сжатия : Lossy
Бит/(Пиксели*Кадры) : 0.424
Размер потока : 1.35 GiB (92%)
Библиотека кодирования : XviD 1.2.1 (UTC 2008-12-04)

Audio
Идентификатор : 1
Формат : AC-3
Формат/Информация : Audio Coding 3
Расширение режима : CM (complete main)
Параметр Endianness формата : Big
Идентификатор кодека : 2000
Продолжительность : 1h 24mn
Вид битрейта : Constant
Битрейт : 192 Kbps
Каналы : 2 channels
Расположение каналов : Front: L R
Частота : 48.0 KHz
Битовая глубина : 16 bits
Метод сжатия : Lossy
Размер потока : 117 MiB (8%)
Выравнивание : Split accross interleaves
Продолжительность промежутка : 40 ms (1.00 video frame)
Время предзагрузки промежутка : 500 ms


Картина снималась недалеко от советско-чехословацкой границы, и в ней принимали участие войска Прикарпатского военного округа. Как вспоминает оператор Евгений Мезенцев, в одну из ночей под окнами гостиницы, где разместилась съемочная группа, долго грохотали танки. А наутро все узнали о вторжении советских войск в Чехословакию. При этом радиостанция Би-би-си сообщила о том, что под видом съемок фильма «На войне, как на войне» СССР сосредоточил на границе с Чехословакией крупные танковые соединения.
В фильме показана самоходка СУ-100 с несколько изменённым внешним видом (на правом борту закреплён металлический ящик непонятного назначения). В действительности СУ-100 впервые приняли участие в боях в Венгрии в январе 1945 г.
В сцене начала первой атаки танков на деревню через поле участвует танк предположительно Т-54 или Т-55.

скриншот   скриншот   скриншот   скриншот   скриншот  скриншот   скриншот   скриншот   скриншот   скриншот  
freetor.icu



Скачать На войне как на войне через торрент http://i4.imageban.ru/out/2012/07/28/3987449d5f35a3102ce1ffa90d3bd191.jpg Скачать, смотреть онлайн На войне как на войне бесплантно в хорошем качестве Описание: Идет Великая Отечественная война. Наши войска освобождают Украину, правый берег Днепра. Младший лейтенант Александр Малешкин, ... 9.8 10 12
Info! Золотая раздача, скачанное не засчитывается.
Торрент: Зарегистрирован [2014-05-07 16:15] · скачан: 205 раз
Статус: √ проверено
Размер: 1.47 GB
Как cкачать? Как скачать На войне как на войне через торрент | UTorrent

% Раздел Тема Автор DL S | L
Бизнес [ 517 MB ] Александр Деревицкий - Партизанская война с работодателем. Как заставить начальника платить тебе больше [Моргунов Павел 2005 192 kbps MP3] bober100 Скачать
3 | 0
Кино СССР [ 1.43 GB ] На войне как на войне [1969 военный DVDRip-AVC] smaster Скачать
1 | 0
Документальные фильмы и телепередачи [ 331 MB ] На войне как на войне [2001 документальный VHSRip] metanoia Скачать
1 | 0

28-11-2019 20:33  

Отключить всю рекламу на сайте

    Дорогой пользователь! Огромная просьба, поблагодарите релизера, оцените раздачу и оставьте свои комментарий, если Вы скачали На войне как на войне через торрент бесплатно!
    Комментировать посты могут только пользователи прошедшие не сложную регистрацию
    Показать сообщения:    

    На войне как на войне через торрент
    Скачать бесплатно На войне как на войне
    На войне как на войне скачать торрент
    На войне как на войне смотреть онлайн
    Cкачать фильм На войне как на войне бесплатно
    На войне как на войне скачать торрент в хорошем качестве
    На войне как на войне смотреть онлайн бесплатно в хорошем качестве


    Вы не можете начинать темы
    Вы не можете отвечать на сообщения
    Вы не можете редактировать свои сообщения
    Вы не можете удалять свои сообщения
    Вы не можете голосовать в опросах
    Вы не можете прикреплять файлы к сообщениям
    Вы можете скачивать файлы