Anonymous, доброе утро, присоединяйтесь к нам в Telegram!, здесь всегда актуальный адрес сайта, оперативная поддержка и многое другое!

>

5.6

iTunes

7.4

MVO

5.7

MVO

1

7.7

1 сезон

6.8

iTunes

7.3

1 сезон

13

6.7

1 сезон

8.3

RePack

30

ULTIMATE

pack

9.9

Лицензия

ВАЖНО

ИГРА 18+

pack

7.3

RePack

MK11

7.7

RePack

jed

7.8

RePack

fifa19

8.5

RePack

RDR2

RePack

NEED FOR SPEED™ PAYBACK

4 сезон

9 сезон

Бесстыжие 9 сезон

Все сериалы

все сериалы на PB.wtf

RePack

FAR CRY 5

Anonymous, доброе утро, мы катастрофически не успеваем собрать деньги на оплату серверов, помогите нам пожалуйста 5,10,15р., для нас важна любая помощь . В качестве благодарности мы отключим Вам всю рекламу на сайте (укажите свой ник в строку Ваше имя)!

×
  
Magnet ссылка

"Мерседес" уходит от погони (Юрий Ляшенко) [1980 г., Военный, Приключения, DVDRip] freetor.icu

"Мерседес" уходит от погони через торрент freetor.icu

Размер: 1.37 GB | Добавлен: 7 лет 5 мес. назад | Торрент скачан:39 раз
Смотреть онлайн "Мерседес" уходит от погони | Скачать    Ребята, помогите собрать деньги на оплату серверов!!!

04-05-2014 17:40 "Мерседес" уходит от погони Скачать торрент  


"Мерседес" уходит от погониГод выпуска: 1980
Страна: СССР Киностудия им.Довженко
Жанр: Военный, Приключения
Продолжительность: 01:13:51
Режиссер: Юрий Ляшенко
Сценарий: Андрей Локотош, Игорь Шевцов

Премьера в мире: март 1981

В ролях: Герман Юшко, Михаил Голубович, Анатолий Рудаков, Игорь Ливанов, Анатолий Барчук, Борис Юрченко, Вилорий Пащенко
Описание: Советским разведчикам дано задание отправиться в тыл врага на рискованную боевую операцию, от успешного выполнения которой зависит судьба фронта. Переодевшись в немецкую форму, они садятся на трофейный "Мерседес" и пересекают линию фронта.
Их путь идёт по дорогам, патрулируемым фашистами, где каждый неверный шаг может привести к роковым последствиям.

Качество: DVDRip
Формат: AVI
Видео кодек: DivX
Аудио кодек: AC3
Видео: DivX 5, 704x352, 25.00fps, 2 256 Kbps
Аудио: Dolby AC3, 48000Hz, 6ch, 384kbps
Релиз от: Devprojman






General
Complete name : I:\01 01 01\'Mersedes' uhodit ot pogoni.avi
Format : AVI
Format/Info : Audio Video Interleave
File size : 1.37 GiB
Duration : 1h 13mn
Overall bit rate : 2 650 Kbps
Writing application : VirtualDubMod 1.5.10.2 (build 2540/release)
Writing library : VirtualDubMod build 2540/release

Video
ID : 0
Format : MPEG-4 Visual
Format settings, BVOP : 1
Format settings, QPel : No
Format settings, GMC : No warppoints
Format settings, Matrix : Default (H.263)
Muxing mode : Packed bitstream
Codec ID : DX50
Codec ID/Hint : DivX 5
Duration : 1h 13mn
Bit rate : 2 256 Kbps
Width : 704 pixels
Height : 352 pixels
Display aspect ratio : 2.000
Frame rate : 25.000 fps
Color space : YUV
Chroma subsampling : 4:2:0
Bit depth : 8 bits
Scan type : Progressive
Compression mode : Lossy
Bits/(Pixel*Frame) : 0.364
Stream size : 1.16 GiB (85%)
Writing library : DivX 6.8.5 (UTC 2009-08-20)

Audio
ID : 1
Format : AC-3
Format/Info : Audio Coding 3
Mode extension : CM (complete main)
Codec ID : 2000
Duration : 1h 13mn
Bit rate mode : Constant
Bit rate : 384 Kbps
Channel(s) : 6 channels
Channel positions : Front: L C R, Side: L R, LFE
Sampling rate : 48.0 KHz
Bit depth : 16 bits
Compression mode : Lossy
Stream size : 203 MiB (14%)
Alignment : Split accross interleaves
Interleave, duration : 40 ms (1.00 video frame)
Interleave, preload duration : 500 ms

freetor.icu



Скачать "Мерседес" уходит от погони через торрент https://pic1.kartinco.top/images/61/iucae.jpg Скачать, смотреть онлайн "Мерседес" уходит от погони бесплантно в хорошем качестве Описание: Советским разведчикам дано задание отправиться в тыл врага на рискованную боевую операцию, от успешного выполнения которой ... 10 10 8
Торрент: Зарегистрирован [2014-05-04 17:40] · скачан: 39 раз
Статус: √ проверено
Размер: 1.37 GB
Как cкачать? Как скачать "Мерседес" уходит от погони через торрент | UTorrent

28-11-2019 20:33  

Отключить всю рекламу на сайте

    Дорогой пользователь! Огромная просьба, поблагодарите релизера, оцените раздачу и оставьте свои комментарий, если Вы скачали "Мерседес" уходит от погони через торрент бесплатно!
    Комментировать посты могут только пользователи прошедшие не сложную регистрацию
    Показать сообщения:    

    "Мерседес" уходит от погони через торрент
    Скачать бесплатно "Мерседес" уходит от погони
    "Мерседес" уходит от погони скачать торрент
    "Мерседес" уходит от погони смотреть онлайн
    Cкачать фильм "Мерседес" уходит от погони бесплатно
    "Мерседес" уходит от погони скачать торрент в хорошем качестве
    "Мерседес" уходит от погони смотреть онлайн бесплатно в хорошем качестве


    Вы не можете начинать темы
    Вы не можете отвечать на сообщения
    Вы не можете редактировать свои сообщения
    Вы не можете удалять свои сообщения
    Вы не можете голосовать в опросах
    Вы не можете прикреплять файлы к сообщениям
    Вы можете скачивать файлы