Anonymous, добрый вечер, присоединяйтесь к нам в Telegram!, здесь всегда актуальный адрес сайта, оперативная поддержка и многое другое!

>

5.6

iTunes

7.4

iTunes

7.9

MVO

1

7.7

1 сезон

6.8

iTunes

7.3

1 сезон

13

6.7

1 сезон

8.3

RePack

30

PREMIUM

pack

9.9

Лицензия

ВАЖНО

ИГРА 18+

pack

7.3

RePack

MK11

7.7

RePack

jed

7.8

RePack

fifa19

8.5

RePack

RDR2

RePack

NEED FOR SPEED™ PAYBACK

4 сезон

9 сезон

Бесстыжие 9 сезон

Все сериалы

все сериалы на PB.wtf

RePack

FAR CRY 5

Anonymous, добрый вечер, мы катастрофически не успеваем собрать деньги на оплату серверов, помогите нам пожалуйста 5,10,15р., для нас важна любая помощь . В качестве благодарности мы отключим Вам всю рекламу на сайте (укажите свой ник в строку Ваше имя)!

×
  
Magnet ссылка

Девушка без адреса (Эльдар Рязанов) [1957, СССР, Комедия, мелодрама, DVDRip] freetor.icu

Девушка без адреса через торрент freetor.icu

Размер: 1.37 GB | Добавлен: 7 лет 6 мес. назад | Торрент скачан:218 раз
Смотреть онлайн Девушка без адреса | Скачать    Ребята, помогите собрать деньги на оплату серверов!!!

06-04-2014 16:32 Девушка без адреса Скачать торрент  

Девушка без адреса
Год выпуска: 1957
Страна: СССР
Жанр: Комедия, мелодрама
Продолжительность: 01:25:09
Перевод: Оригинал
Субтитры: Нет
Режиссер: Эльдар Рязанов
В ролях: Светлана Карпинская, Николай Рыбников, Эраст Гарин, Рина Зелёная, Ольга Аросева, Лидия Королёва, Юрий Белов, Зоя Фёдорова, Сергей Филиппов, Георгий Георгиу, Георгий Тусузов, Татьяна Гурецкая, Павел Тарасов, Евгений Гуров, Светлана Харитонова, Валентина Ананьина, Владимир Пицек, Владимир Абрамов, Ирина Мурзаева, Николай Чистяков, Пётр Репнин, Леонид Чубаров, Пётр Савин, Георгий Куликов, Василий Топорков

Описание:

Забавные приключения молодого строителя Пашки Гусарова начались с того момента, как в поезде он встретил и полюбил Катю. Счастье делает человека беспечным, и на вокзале его ждет множество необычных событий. Однако именно здесь влюбленные встречаются вновь, и больше уже не расстаются.


Качество видео: DVDRip
Формат видео: AVI
Видеокодек: DivX 5
Аудиокодек: AC3
Видео: MPEG4, DivX 5, 704x512 (1.375), 25.000 fps, 2 102 Kbps (0.233 bit/pixel)
Аудио: AC-3, 48.0 KHz, 2 ch, 192 Kbps, CBR
Доп. информация:

Лидер проката (1958, 2 место) - 36,5 млн зрителей.В фильме видно, что поезд с Катей прибывает на Белорусский вокзал, а Катя с дедом выходят из здания Ленинградского вокзала, в то время как в начале фильма, когда Катя садится в поезд, на вагонах видны таблички «Москва-Сочи», а сочинские поезда ни на Белорусский, ни на Ленинградский вокзал не прибывают и никогда не прибывали. Поезд, в котором Катя собирается уехать в конце фильма, отправляется тоже с Белорусского вокзала, но якобы в Иркутск, что также не соответствует реальной географии.


General
Полное имя : D:\Video\Devushka.bez.adresa.1957.DivX.DVDRip.avi
Формат : AVI
Формат/Информация : Audio Video Interleave
Размер файла : 1.37 GiB
Продолжительность : 1h 25mn
Общий поток : 2 303 Kbps
Программа кодирования : VirtualDubMod 1.5.10.3 (build 2550/release)
Библиотека кодирования : VirtualDubMod build 2550/release

Video
Идентификатор : 0
Формат : MPEG-4 Visual
Профиль формата : Advanced Simple@L5
Параметр BVOP формата : 1
Параметр QPel формата : No
Параметр GMC формата : No warppoints
Параметр матрицы формата : Default (MPEG)
Режим смешивания : Packed bitstream
Идентификатор кодека : DX50
Идентификатор кодека/Подсказка : DivX 5
Продолжительность : 1h 25mn
Битрейт : 2 102 Kbps
Ширина : 704 pixels
Высота : 512 pixels
Соотношение сторон : 1.375
Частота кадров : 25.000 fps
Цветовое пространство : YUV
Субдискретизация насыщенности : 4:2:0
Битовая глубина : 8 bits
Тип развёртки : Progressive
Метод сжатия : Lossy
Бит/(Пиксели*Кадры) : 0.233
Размер потока : 1.25 GiB (91%)
Библиотека кодирования : XviD 1.2.1 (UTC 2008-12-04)

Audio
Идентификатор : 1
Формат : AC-3
Формат/Информация : Audio Coding 3
Расширение режима : CM (complete main)
Параметр Endianness формата : Big
Идентификатор кодека : 2000
Продолжительность : 1h 25mn
Вид битрейта : Constant
Битрейт : 192 Kbps
Каналы : 2 channels
Расположение каналов : Front: L R
Частота : 48.0 KHz
Битовая глубина : 16 bits
Метод сжатия : Lossy
Размер потока : 117 MiB (8%)
Выравнивание : Split accross interleaves
Продолжительность промежутка : 40 ms (1.00 video frame)
Время предзагрузки промежутка : 500 ms

freetor.icu



Скачать Девушка без адреса через торрент http://i4.imageban.ru/out/2012/07/28/3987449d5f35a3102ce1ffa90d3bd191.jpg Скачать, смотреть онлайн Девушка без адреса бесплантно в хорошем качестве Описание: Забавные приключения молодого строителя Пашки Гусарова начались с того момента, как в поезде он встретил и полюбил Катю. Счастье ... 10 10 8
Info! Золотая раздача, скачанное не засчитывается.
Торрент: Зарегистрирован [2014-04-06 16:32] · скачан: 218 раз
Статус: √ проверено
Размер: 1.37 GB
Как cкачать? Как скачать Девушка без адреса через торрент | UTorrent

% Раздел Тема Автор DL S | L
Кино СССР [ 1.29 GB ] Девушка без адреса [1957 DVDRip-AVC] smaster Скачать
1 | 0

28-11-2019 20:33  

Отключить всю рекламу на сайте

06-04-2014 18:20 Девушка без адреса Скачать торрент  

"Масик" хочет водочки... freetor.icu



    Дорогой пользователь! Огромная просьба, поблагодарите релизера, оцените раздачу и оставьте свои комментарий, если Вы скачали Девушка без адреса через торрент бесплатно!
    Комментировать посты могут только пользователи прошедшие не сложную регистрацию
    Показать сообщения:    

    Девушка без адреса через торрент
    Скачать бесплатно Девушка без адреса
    Девушка без адреса скачать торрент
    Девушка без адреса смотреть онлайн
    Cкачать фильм Девушка без адреса бесплатно
    Девушка без адреса скачать торрент в хорошем качестве
    Девушка без адреса смотреть онлайн бесплатно в хорошем качестве


    Вы не можете начинать темы
    Вы не можете отвечать на сообщения
    Вы не можете редактировать свои сообщения
    Вы не можете удалять свои сообщения
    Вы не можете голосовать в опросах
    Вы не можете прикреплять файлы к сообщениям
    Вы можете скачивать файлы