>

8.4

Хороший звук

6.1

MVO

6.4

Line & MVO

1

7.4

1 сезон

6.8

iTunes

7.2

1 сезон

13

6.7

1 сезон

8.3

RePack

30

Deluxe

pack

9.9

Лицензия

ВАЖНО

ИГРА 18+

pack

7.3

RePack

MK11

7.7

RePack

jed

7.8

RePack

fifa19

8.5

RePack

RDR2

RePack

NEED FOR SPEED™ PAYBACK

4 сезон

9 сезон

Бесстыжие 9 сезон

Все сериалы

все сериалы на PB.wtf

RePack

FAR CRY 5

Anonymous, доброе утро, мы катастрофически не успеваем собрать деньги на оплату серверов, помогите нам пожалуйста 5,10,15р., для нас важна любая помощь . В качестве благодарности мы отключим Вам всю рекламу на сайте (укажите свой ник в строку Ваше имя)!

×
  
Magnet ссылка

Настоящий индийский роман / Shuddh Desi Romance (Маниш Шарма / Maneesh Sharma) [2013, Индия, драма, мелодрама, комедия, HDRip,Профессиональный (многоголосый, закадровый) freetor.icu

Настоящий индийский роман через торрент freetor.icu

Размер: 2.19 GB | Добавлен: 7 лет 5 мес. назад | Торрент скачан:83 раза
Смотреть онлайн Настоящий индийский роман | Скачать    Ребята, помогите собрать деньги на оплату серверов!!!

06-04-2014 12:19 Настоящий индийский роман Скачать торрент  

Настоящий индийский роман / Shuddh Desi Romance

  • Год выпуска: 2013
  • Страна:Индия
  • Жанр:драма, мелодрама, комедия
  • Продолжительность:02:06:42
  • Перевод:Профессиональный (многоголосый, закадровый)
  • Субтитры: Русские
  • Режиссер: Маниш Шарма / Maneesh Sharma
  • В ролях:

    Сушант Сингх Раджпут (Raghu), Паринити Чопра (Gayatri), Ваани Капур (Tara), Риши Капур (Goyal / Tauji), Imtiaz Ahmad (Bride's Electrician Boy Friend), Bhuvan Arora (Raghu's Friend 1), Анкуш Бали (Boy from Bride's Side 2), Ramakant Dayama (Mamaji), Aman Dhanwani (Little Boy), Alex Gabriel (Tourist 2), Mahesh Ginnilal (Bus Conductor), Приянка Джайн (Tara's Friend 1)

    • Описание:
      Действие происходит в современной изменившейся Индии, где трое молодых людей пытаются разобраться в своих чувствах, не особо оглядываясь на вековые традиции..

    Мировая премьера:5 сентября 2013

    • Качество: HDRip
    • Формат: AVI
    • Видео кодек: XviD
    • Аудио кодек:AC3
    • Видео: XviD, 720x304 (2.35:1), 1782 kbps, 24 fps, 0,339 bpp
    • Аудио №1: AC3 / 5.1 / 48 kHz / 448 kbps / 16 bit[Русский]
      Аудио №2: AC3 / 2.0 / 48 kHz / 224 kbps / 16 bit [Оригинал]


    Код:

    General
    Complete name                            : D:\Торенты\Shuddh.Desi.Romance.2013.HDRip.Rus.Original.ICG.GeneralFilm\Shuddh.Desi.Romance.2013.HDRip.Rus.Original.ICG.GeneralFilm.avi
    Format                                   : AVI
    Format/Info                              : Audio Video Interleave
    Format profile                           : OpenDML
    File size                                : 2.19 GiB
    Duration                                 : 2h 6mn
    Overall bit rate                         : 2 473 Kbps
    Writing application                      : VirtualDubModRus 1.5.10.2 (build 2542/release)
    Writing library                          : VirtualDubMod build 2542/release

    Video
    ID                                       : 0
    Format                                   : MPEG-4 Visual
    Format profile                           : Advanced Simple@L5
    Format settings, BVOP                    : 1
    Format settings, QPel                    : No
    Format settings, GMC                     : No warppoints
    Format settings, Matrix                  : Custom
    Codec ID                                 : XVID
    Codec ID/Hint                            : XviD
    Duration                                 : 2h 6mn
    Bit rate                                 : 1 783 Kbps
    Width                                    : 720 pixels
    Height                                   : 304 pixels
    Display aspect ratio                     : 2.35:1
    Frame rate                               : 24.000 fps
    Color space                              : YUV
    Chroma subsampling                       : 4:2:0
    Bit depth                                : 8 bits
    Scan type                                : Progressive
    Compression mode                         : Lossy
    Bits/(Pixel*Frame)                       : 0.339
    Stream size                              : 1.58 GiB (72%)
    Writing library                          : XviD 64

    Audio #1
    ID                                       : 1
    Format                                   : AC-3
    Format/Info                              : Audio Coding 3
    Mode extension                           : CM (complete main)
    Codec ID                                 : 2000
    Duration                                 : 2h 6mn
    Bit rate mode                            : Constant
    Bit rate                                 : 448 Kbps
    Channel(s)                               : 6 channels
    Channel positions                        : Front: L C R, Side: L R, LFE
    Sampling rate                            : 48.0 KHz
    Bit depth                                : 16 bits
    Compression mode                         : Lossy
    Stream size                              : 406 MiB (18%)
    Alignment                                : Split accross interleaves
    Interleave, duration                     : 42 ms (1.00 video frame)
    Interleave, preload duration             : 500 ms

    Audio #2
    ID                                       : 2
    Format                                   : AC-3
    Format/Info                              : Audio Coding 3
    Mode extension                           : CM (complete main)
    Codec ID                                 : 2000
    Duration                                 : 2h 6mn
    Bit rate mode                            : Constant
    Bit rate                                 : 224 Kbps
    Channel(s)                               : 2 channels
    Channel positions                        : Front: L R
    Sampling rate                            : 48.0 KHz
    Bit depth                                : 16 bits
    Compression mode                         : Lossy
    Stream size                              : 203 MiB (9%)
    Alignment                                : Aligned on interleaves
    Interleave, duration                     : 42 ms (1.00 video frame)
    Interleave, preload duration             : 512 ms

    Скриншоты:

    Каталог Новинок (Фильмы-трейлеры, Игры, Сериалы, Мультфильмы)

    © Оформление by Raven
    freetor.icu



  • Скачать Настоящий индийский роман через торрент http://i2.imageban.ru/out/2014/04/06/8a64f46640950a63d0c32ceba4eca980.jpg Скачать, смотреть онлайн Настоящий индийский роман бесплантно в хорошем качестве Описание:Действие происходит в современной изменившейся Индии, где трое молодых людей пытаются разобраться в своих чувствах, не особо ... 9.6 10 5
    Торрент: Зарегистрирован [2014-04-06 12:19] · скачан: 83 раз
    Статус: √ проверено
    Размер: 2.19 GB
    Как cкачать? Как скачать Настоящий индийский роман через торрент | UTorrent

    28-11-2019 20:33  

    Отключить всю рекламу на сайте

      Дорогой пользователь! Огромная просьба, поблагодарите релизера, оцените раздачу и оставьте свои комментарий, если Вы скачали Настоящий индийский роман через торрент бесплатно!
      Комментировать посты могут только пользователи прошедшие не сложную регистрацию
      Показать сообщения:    

      Настоящий индийский роман через торрент
      Скачать бесплатно Настоящий индийский роман
      Настоящий индийский роман скачать торрент
      Настоящий индийский роман смотреть онлайн
      Cкачать фильм Настоящий индийский роман бесплатно
      Настоящий индийский роман скачать торрент в хорошем качестве
      Настоящий индийский роман смотреть онлайн бесплатно в хорошем качестве


      Вы не можете начинать темы
      Вы не можете отвечать на сообщения
      Вы не можете редактировать свои сообщения
      Вы не можете удалять свои сообщения
      Вы не можете голосовать в опросах
      Вы не можете прикреплять файлы к сообщениям
      Вы можете скачивать файлы