Anonymous, доброе утро, присоединяйтесь к нам в Telegram!, здесь всегда актуальный адрес сайта, оперативная поддержка и многое другое!

>

5.6

iTunes

7.4

MVO

5.7

MVO

1

7.7

1 сезон

6.8

iTunes

7.3

1 сезон

13

6.7

1 сезон

8.3

RePack

30

ULTIMATE

pack

9.9

Лицензия

ВАЖНО

ИГРА 18+

pack

7.3

RePack

MK11

7.7

RePack

jed

7.8

RePack

fifa19

8.5

RePack

RDR2

RePack

NEED FOR SPEED™ PAYBACK

4 сезон

9 сезон

Бесстыжие 9 сезон

Все сериалы

все сериалы на PB.wtf

RePack

FAR CRY 5

Anonymous, доброе утро, мы катастрофически не успеваем собрать деньги на оплату серверов, помогите нам пожалуйста 5,10,15р., для нас важна любая помощь . В качестве благодарности мы отключим Вам всю рекламу на сайте (укажите свой ник в строку Ваше имя)!

×
  
Magnet ссылка

Господин Великий Новгород (Алексей Салтыков) [1985 г., Драма, военный, SATRip] freetor.icu

Господин Великий Новгород через торрент freetor.icu

Размер: 1.34 GB | Добавлен: 7 лет 7 мес. назад | Торрент скачан:70 раз
Смотреть онлайн Господин Великий Новгород | Скачать    Ребята, помогите собрать деньги на оплату серверов!!!

20-02-2014 18:39 Господин Великий Новгород Скачать торрент  

Господин Великий Новгород
Год выпуска: 1985
Страна: СССР Мосфильм
Жанр: Драма, военный
Продолжительность: 01:30:41

Режиссер: Алексей Салтыков
Сценарий: Юрий Лиманов, Алексей Салтыков

Премьера в мире: 29 апреля 1985 года



В ролях: Олег Стриженов, Вячеслав Езепов, Зинаида Кириенко, Елена Антонова, Михаил Жигалов, Александр Кузнецов, Дмитрий Балашов (русский писатель, фольклорист Дмитрий Михайлович Балашов (1927-2000)), Александр Казаков, Лионелла Пырьева, Кенно Оя, Анатолий Скорякин

Описание: Август 1941 года. Новгород готовится к обороне. Крайне важно спасти музейные, культурные ценности, гигантские колокола Софийской звонницы. Получив приказ оставить город, горком уходит в подполье и разворачивает партизанское движение. Гитлеровцы намерены уничтожить Новгород, и для этой цели направляют туда баржу с тротилом...

Качество: SATRip
Формат: AVI
Видео кодек: XviD
Аудио кодек: MP3
Видео: Xvid 672x432, 25.00fps, 1 995 Kbps
Аудио: MPEG Audio Layer 3, 48000Hz, mono, 112kbps
Релиз от: grom1601





General
Complete name : D:19 02 2014Gospodin.Velikiy.Novgorod.1985.XviD.SATRip.avi
Format : AVI
Format/Info : Audio Video Interleave
File size : 1.34 GiB
Duration : 1h 30mn
Overall bit rate : 2 113 Kbps
Writing application : VirtualDubMod 1.5.10.2 (build 2540/release)
Writing library : VirtualDubMod build 2540/release

Video
ID : 0
Format : MPEG-4 Visual
Format profile : Advanced Simple@L5
Format settings, BVOP : 2
Format settings, QPel : No
Format settings, GMC : No warppoints
Format settings, Matrix : Default (MPEG)
Codec ID : XVID
Codec ID/Hint : XviD
Duration : 1h 30mn
Bit rate : 1 995 Kbps
Width : 672 pixels
Height : 432 pixels
Display aspect ratio : 1.556
Frame rate : 25.000 fps
Color space : YUV
Chroma subsampling : 4:2:0
Bit depth : 8 bits
Scan type : Progressive
Compression mode : Lossy
Bits/(Pixel*Frame) : 0.275
Stream size : 1.26 GiB (94%)
Writing library : XviD 1.2.1 (UTC 2008-12-04)

Audio
ID : 1
Format : MPEG Audio
Format version : Version 1
Format profile : Layer 3
Codec ID : 55
Codec ID/Hint : MP3
Duration : 1h 30mn
Bit rate mode : Constant
Bit rate : 112 Kbps
Channel(s) : 1 channel
Sampling rate : 48.0 KHz
Compression mode : Lossy
Stream size : 72.6 MiB (5%)
Alignment : Aligned on interleaves
Interleave, duration : 160 ms (4.00 video frames)
Interleave, preload duration : 504 ms

freetor.icu



Скачать Господин Великий Новгород через торрент https://pic1.kartinco.top/images/61/r16v7.jpg Скачать, смотреть онлайн Господин Великий Новгород бесплантно в хорошем качестве Описание: Август 1941 года. Новгород готовится к обороне. Крайне важно спасти музейные, культурные ценности, гигантские колокола Софийской ... 9.9 10 14
Info! Золотая раздача, скачанное не засчитывается.
Торрент: Зарегистрирован [2014-02-20 18:39] · скачан: 70 раз
Статус: √ проверено
Размер: 1.34 GB
Как cкачать? Как скачать Господин Великий Новгород через торрент | UTorrent

28-11-2019 20:33  

Отключить всю рекламу на сайте

11-08-2014 16:34 Господин Великий Новгород Скачать торрент  

не раздает никто(freetor.icu



    Дорогой пользователь! Огромная просьба, поблагодарите релизера, оцените раздачу и оставьте свои комментарий, если Вы скачали Господин Великий Новгород через торрент бесплатно!
    Комментировать посты могут только пользователи прошедшие не сложную регистрацию
    Показать сообщения:    

    Господин Великий Новгород через торрент
    Скачать бесплатно Господин Великий Новгород
    Господин Великий Новгород скачать торрент
    Господин Великий Новгород смотреть онлайн
    Cкачать фильм Господин Великий Новгород бесплатно
    Господин Великий Новгород скачать торрент в хорошем качестве
    Господин Великий Новгород смотреть онлайн бесплатно в хорошем качестве


    Вы не можете начинать темы
    Вы не можете отвечать на сообщения
    Вы не можете редактировать свои сообщения
    Вы не можете удалять свои сообщения
    Вы не можете голосовать в опросах
    Вы не можете прикреплять файлы к сообщениям
    Вы можете скачивать файлы