Anonymous, доброй ночи, присоединяйтесь к нам в Telegram!, здесь всегда актуальный адрес сайта, оперативная поддержка и многое другое!

>

5.6

iTunes

7.4

MVO

5.7

MVO

1

7.7

1 сезон

6.8

iTunes

7.3

1 сезон

13

6.7

1 сезон

8.3

RePack

30

ULTIMATE

pack

9.9

Лицензия

ВАЖНО

ИГРА 18+

pack

7.3

RePack

MK11

7.7

RePack

jed

7.8

RePack

fifa19

8.5

RePack

RDR2

RePack

NEED FOR SPEED™ PAYBACK

4 сезон

9 сезон

Бесстыжие 9 сезон

Все сериалы

все сериалы на PB.wtf

RePack

FAR CRY 5

Anonymous, доброй ночи, мы катастрофически не успеваем собрать деньги на оплату серверов, помогите нам пожалуйста 5,10,15р., для нас важна любая помощь . В качестве благодарности мы отключим Вам всю рекламу на сайте (укажите свой ник в строку Ваше имя)!

×
  
Magnet ссылка

Отель «У погибшего альпиниста» (Григорий Кроманов) [1979 г., Фантастика, триллер, драма, криминал, детектив, экранизация, DVDRip] DUB freetor.icu

Отель «У погибшего альпиниста» через торрент freetor.icu

Размер: 1.37 GB | Добавлен: 7 лет 7 мес. назад | Торрент скачан:87 раз
Смотреть онлайн Отель «У погибшего альпиниста» | Скачать    Ребята, помогите собрать деньги на оплату серверов!!!

18-02-2014 06:46 Отель «У погибшего альпиниста» Скачать торрент  

Отель «У погибшего альпиниста»
Год выпуска: 1979
Страна: СССР «Таллинфильм»
Жанр: Фантастика, триллер, драма, криминал, детектив, экранизация
Продолжительность: 01:19:26

Режиссер: Григорий Кроманов
Сценарий: Аркадий Стругацкий, Борис Стругацкий

Премьера в мире: 27 августа 1979



В ролях: Улдис Пуцитис, Юри Ярвет, Лембит Петерсон, Микк Микивер, Карл Себрис, Сулев Луйк, Тийт Хярм, Нийоле Ожелите, Карин Райд, Ирена Кряузайте

Описание: По срочному вызову в отель "У погибшего альпиниста" приезжает инспектор Глебски. Немногочисленные постояльцы напуганы до смерти. Однако Глебски не обнаруживает никакого состава преступления. Снежная лавина отрезает ему путь в город. Инспектор остается в отеле и окaзывaeтcя в caмом цeнтpe шокирующих cобытий. Вскоре в одном из номеров он обнаруживает труп. Занимаясь поисками убийцы, инспектор постепенно откpывaeт для себя ужacныe тaйны, котоpыe хpaнит отeль… По повести братьев Стругацких.

Доп. информация: Дублирование
Александр Демьяненко, Алексей Кожевников, Олег Борисов, Юрий Соловьев, Николай Федорцов, Елена Ставрогина, Жанна Сухопольская

Качество: DVDRip
Формат: AVI
Видео кодек: XviD
Аудио кодек: AC3
Видео: Xvid 704x528, 25.00fps, 2 006 Kbps
Аудио: Dolby AC3, 48000Hz, 6ch, 448kbps
Релиз от: SafTim





General
Complete name : D:18 02 2014Otel.U.pogibshego.alpinista.1979.XviD.DVDRip-SafTim.avi
Format : AVI
Format/Info : Audio Video Interleave
File size : 1.37 GiB
Duration : 1h 19mn
Overall bit rate : 2 464 Kbps
Movie name : Отель «У погибшего альпиниста», 1979
Director : Sergeich Ltd.
Writing application : VirtualDubModRus 1.5.10.2 (build 2542/release)
Writing library : VirtualDubMod build 2542/release
Copyright : Kinozal.tv, Uniongang.tv, Relizlab.org
Comment : 19.12.2011

Video
ID : 0
Format : MPEG-4 Visual
Format profile : Advanced Simple@L5
Format settings, BVOP : 3
Format settings, QPel : No
Format settings, GMC : No warppoints
Format settings, Matrix : Custom
Codec ID : XVID
Codec ID/Hint : XviD
Duration : 1h 19mn
Bit rate : 2 006 Kbps
Width : 704 pixels
Height : 528 pixels
Display aspect ratio : 4:3
Frame rate : 25.000 fps
Color space : YUV
Chroma subsampling : 4:2:0
Bit depth : 8 bits
Scan type : Progressive
Compression mode : Lossy
Bits/(Pixel*Frame) : 0.216
Stream size : 1.11 GiB (81%)
Writing library : XviD 72

Audio
ID : 1
Format : AC-3
Format/Info : Audio Coding 3
Mode extension : CM (complete main)
Codec ID : 2000
Duration : 1h 19mn
Bit rate mode : Constant
Bit rate : 448 Kbps
Channel(s) : 6 channels
Channel positions : Front: L C R, Side: L R, LFE
Sampling rate : 48.0 KHz
Bit depth : 16 bits
Compression mode : Lossy
Stream size : 255 MiB (18%)
Alignment : Split accross interleaves
Interleave, duration : 40 ms (1.00 video frame)
Interleave, preload duration : 500 ms
Title : Russian

freetor.icu



Скачать Отель «У погибшего альпиниста» через торрент https://pic1.kartinco.top/images/61/nyn5l.jpg Скачать, смотреть онлайн Отель «У погибшего альпиниста» бесплантно в хорошем качестве Описание: По срочному вызову в отель "У погибшего альпиниста" приезжает инспектор Глебски. Немногочисленные постояльцы напуганы до смерти. ... 9.9 10 14
Info! Золотая раздача, скачанное не засчитывается.
Торрент: Зарегистрирован [2014-02-18 06:46] · скачан: 87 раз
Статус: √ проверено
Размер: 1.37 GB
Как cкачать? Как скачать Отель «У погибшего альпиниста» через торрент | UTorrent

28-11-2019 20:33  

Отключить всю рекламу на сайте

    Дорогой пользователь! Огромная просьба, поблагодарите релизера, оцените раздачу и оставьте свои комментарий, если Вы скачали Отель «У погибшего альпиниста» через торрент бесплатно!
    Комментировать посты могут только пользователи прошедшие не сложную регистрацию
    Показать сообщения:    

    Отель «У погибшего альпиниста» через торрент
    Скачать бесплатно Отель «У погибшего альпиниста»
    Отель «У погибшего альпиниста» скачать торрент
    Отель «У погибшего альпиниста» смотреть онлайн
    Cкачать фильм Отель «У погибшего альпиниста» бесплатно
    Отель «У погибшего альпиниста» скачать торрент в хорошем качестве
    Отель «У погибшего альпиниста» смотреть онлайн бесплатно в хорошем качестве


    Вы не можете начинать темы
    Вы не можете отвечать на сообщения
    Вы не можете редактировать свои сообщения
    Вы не можете удалять свои сообщения
    Вы не можете голосовать в опросах
    Вы не можете прикреплять файлы к сообщениям
    Вы можете скачивать файлы