Anonymous, доброй ночи, присоединяйтесь к нам в Telegram!, здесь всегда актуальный адрес сайта, оперативная поддержка и многое другое!

>

5.6

iTunes

7.4

MVO

5.7

MVO

1

7.7

1 сезон

6.8

iTunes

7.3

1 сезон

13

6.7

1 сезон

8.3

RePack

30

ULTIMATE

pack

9.9

Лицензия

ВАЖНО

ИГРА 18+

pack

7.3

RePack

MK11

7.7

RePack

jed

7.8

RePack

fifa19

8.5

RePack

RDR2

RePack

NEED FOR SPEED™ PAYBACK

4 сезон

9 сезон

Бесстыжие 9 сезон

Все сериалы

все сериалы на PB.wtf

RePack

FAR CRY 5

Anonymous, доброй ночи, мы катастрофически не успеваем собрать деньги на оплату серверов, помогите нам пожалуйста 5,10,15р., для нас важна любая помощь . В качестве благодарности мы отключим Вам всю рекламу на сайте (укажите свой ник в строку Ваше имя)!

×
  
Magnet ссылка

Сказки старого волшебника (Наталья Збандут) [1984 г., фэнтези, мелодрама, приключения, DVDRip-AVC] freetor.icu

Сказки старого волшебника через торрент freetor.icu

Размер: 2.06 GB | Добавлен: 7 лет 8 мес. назад | Торрент скачан:110 раз
Смотреть онлайн Сказки старого волшебника | Скачать    Ребята, помогите собрать деньги на оплату серверов!!!

13-02-2014 13:41 Сказки старого волшебника Скачать торрент  

Информация о фильме:
Название: Сказки старого волшебника

Год выпуска: 1984
Страна: СССР
Студия: Одесская киностудия
Жанр: фэнтези, мелодрама, приключения

Режиссёр: Наталья Збандут
В ролях: Антон Табаков, Анна Исайкина, Сергей Юрский, Регина Разума, Татьяна Васильева, Армен Джигарханян, Михаил Светин, Людмила Крылова, Александр Шаврин, Евгения Симонова

Серий: 2
Продолжительность: 01:09:52 + 01:04:44
Перевод: Не требуется
Субтитры: Нет

Описание:
У короля и королевы сказочного королевства родилась принцесса. Злая колдунья, которая обиделась что её не пригласили на праздник дня рождения принцессы, прокляла её. В день, когда принцессе исполнится 16 лет — её уколет веретено прялки, и она заснет вечным сном. Король распорядился уничтожить все прялки в королевстве, а число 16 изъять из употребления. Но чему быть, того не миновать. В королевстве появляется юный странствующий принц. Он принесёт с собой проклятие и ему же суждено развеять чары злой колдуньи.


Релиз от: R.G.RealMT

Файл:
Качество: DVDRip-AVC
Формат: MP4
Видео кодек: AVC
Аудио кодек: AAC
Видео: ~2000 kbps, 720x540, 25 fps
Аудио: ~192 kbps, 2 ch, 44,1 khz

Скиншоты:
Общее
Полное имя : D:Фильмы720SKAZKISKAZKI 01.mp4
Формат : MPEG-4
Профиль формата : Base Media / Version 2
Идентификатор кодека : mp42
Размер файла : 1,07 Гбайт
Продолжительность : 1 ч. 9 м.
Общий поток : 2195 Кбит/сек
Дата кодирования : UTC 2014-02-11 18:09:09
Дата пометки : UTC 2014-02-12 02:33:31

Видео
Идентификатор : 1
Формат : AVC
Формат/Информация : Advanced Video Codec
Профиль формата : High@L3.0
Параметр CABAC формата : Да
Параметр ReFrames формата : 3 кадра
Параметр GOP формата : N=1
Идентификатор кодека : avc1
Идентификатор кодека/Информация : Advanced Video Coding
Продолжительность : 1 ч. 9 м.
Битрейт : 2005 Кбит/сек
Ширина : 720 пикселей
Высота : 540 пикселей
Соотношение сторон : 4:3
Режим частоты кадров : Постоянный
Частота кадров : 25,000 кадров/сек
Цветовое пространство : YUV
Субдискретизация насыщенности : 4:2:0
Битовая глубина : 8 бит
Тип развёртки : Прогрессивная
Бит/(Пиксели*Кадры) : 0.206
Размер потока : 1002 Мбайт (91%)
Язык : English
Дата кодирования : UTC 2014-02-11 18:09:09
Дата пометки : UTC 2014-02-12 02:33:30

Аудио
Идентификатор : 2
Формат : AAC
Формат/Информация : Advanced Audio Codec
Профиль формата : LC
Идентификатор кодека : 40
Продолжительность : 1 ч. 9 м.
Продолжительность оригинала : 1 ч. 9 м.
Вид битрейта : Постоянный
Номинальный битрейт : 192 Кбит/сек
Каналы : 2 канала
Расположение каналов : Front: L R
Частота : 44,1 КГц
Метод сжатия : С потерями
Размер потока оригинала : 94,0 Мбайт (9%)
Язык : English
Дата кодирования : UTC 2014-02-11 18:09:09
Дата пометки : UTC 2014-02-12 02:33:30

Общее
Полное имя : D:Фильмы720SKAZKISKAZKI 02.mp4
Формат : MPEG-4
Профиль формата : Base Media / Version 2
Идентификатор кодека : mp42
Размер файла : 1013 Мбайт
Продолжительность : 1 ч. 4 м.
Общий поток : 2189 Кбит/сек
Дата кодирования : UTC 2014-02-12 02:33:32
Дата пометки : UTC 2014-02-12 10:36:45

Видео
Идентификатор : 1
Формат : AVC
Формат/Информация : Advanced Video Codec
Профиль формата : High@L3.0
Параметр CABAC формата : Да
Параметр ReFrames формата : 3 кадра
Параметр GOP формата : N=1
Идентификатор кодека : avc1
Идентификатор кодека/Информация : Advanced Video Coding
Продолжительность : 1 ч. 4 м.
Битрейт : 2001 Кбит/сек
Ширина : 720 пикселей
Высота : 540 пикселей
Соотношение сторон : 4:3
Режим частоты кадров : Постоянный
Частота кадров : 25,000 кадров/сек
Цветовое пространство : YUV
Субдискретизация насыщенности : 4:2:0
Битовая глубина : 8 бит
Тип развёртки : Прогрессивная
Бит/(Пиксели*Кадры) : 0.206
Размер потока : 927 Мбайт (91%)
Язык : English
Дата кодирования : UTC 2014-02-12 02:33:33
Дата пометки : UTC 2014-02-12 10:36:45

Аудио
Идентификатор : 2
Формат : AAC
Формат/Информация : Advanced Audio Codec
Профиль формата : LC
Идентификатор кодека : 40
Продолжительность : 1 ч. 4 м.
Продолжительность оригинала : 1 ч. 4 м.
Вид битрейта : Постоянный
Номинальный битрейт : 185 Кбит/сек
Каналы : 2 канала
Расположение каналов : Front: L R
Частота : 44,1 КГц
Метод сжатия : С потерями
Размер потока оригинала : 85,8 Мбайт (8%)
Язык : English
Дата кодирования : UTC 2014-02-12 02:33:33
Дата пометки : UTC 2014-02-12 10:36:45
freetor.icu



Скачать Сказки старого волшебника через торрент http://i33.fastpic.ru/big/2014/0211/ed/8f0d32c0d377c6f71e08c8d1b2832bed.gif Скачать, смотреть онлайн Сказки старого волшебника бесплантно в хорошем качестве Описание: У короля и королевы сказочного королевства родилась принцесса. Злая колдунья, которая обиделась что её не пригласили на праздник ... 10 10 4
Info! Золотая раздача, скачанное не засчитывается.
Торрент: Зарегистрирован [2014-02-13 13:41] · скачан: 110 раз
Статус: √ проверено
Размер: 2.06 GB
Как cкачать? Как скачать Сказки старого волшебника через торрент | UTorrent

28-11-2019 20:33  

Отключить всю рекламу на сайте

    Дорогой пользователь! Огромная просьба, поблагодарите релизера, оцените раздачу и оставьте свои комментарий, если Вы скачали Сказки старого волшебника через торрент бесплатно!
    Комментировать посты могут только пользователи прошедшие не сложную регистрацию
    Показать сообщения:    

    Сказки старого волшебника через торрент
    Скачать бесплатно Сказки старого волшебника
    Сказки старого волшебника скачать торрент
    Сказки старого волшебника смотреть онлайн
    Cкачать фильм Сказки старого волшебника бесплатно
    Сказки старого волшебника скачать торрент в хорошем качестве
    Сказки старого волшебника смотреть онлайн бесплатно в хорошем качестве


    Вы не можете начинать темы
    Вы не можете отвечать на сообщения
    Вы не можете редактировать свои сообщения
    Вы не можете удалять свои сообщения
    Вы не можете голосовать в опросах
    Вы не можете прикреплять файлы к сообщениям
    Вы можете скачивать файлы