>

5.6

iTunes

6.1

MVO

5.7

MVO

1

7.4

1 сезон

6.8

iTunes

7.2

1 сезон

13

6.7

1 сезон

8.3

RePack

30

Deluxe

pack

9.9

Лицензия

ВАЖНО

ИГРА 18+

pack

7.3

RePack

MK11

7.7

RePack

jed

7.8

RePack

fifa19

8.5

RePack

RDR2

RePack

NEED FOR SPEED™ PAYBACK

4 сезон

9 сезон

Бесстыжие 9 сезон

Все сериалы

все сериалы на PB.wtf

RePack

FAR CRY 5

Anonymous, добрый день, мы катастрофически не успеваем собрать деньги на оплату серверов, помогите нам пожалуйста 5,10,15р., для нас важна любая помощь . В качестве благодарности мы отключим Вам всю рекламу на сайте (укажите свой ник в строку Ваше имя)!

×
  
Magnet ссылка

Пока я жив / Jab Tak Hai Jaan (Яш Чопра) [2012 г., драма, мелодрама, DVDRip, MVO,] freetor.icu

Пока я жив через торрент freetor.icu

Размер: 2.19 GB | Добавлен: 7 лет 8 мес. назад | Торрент скачан:64 раза
Смотреть онлайн Пока я жив | Скачать    Ребята, помогите собрать деньги на оплату серверов!!!

05-01-2013 06:26 Пока я жив Скачать торрент  

Пока я жив / Jab Tak Hai Jaan

Год выпуска: 2012
Страна: Индия
Жанр: драма, мелодрама
Продолжительность: 02:56:11
Перевод: Профессиональный многоголосый

Режиссер: Яш Чопра
Продюссер: Адитья Чопра, Падам Бхушан, Аших Синх
Сценарий: Адитья Чопра, Девика Бхагат

Премьера в мире: 13 ноября 2012

Мировой рейтинг IMDB 7.50 (17 184)


В ролях: Шах Рукх Кхан, Катрина Кэйф, Анушка Шарма, Крис Соммервиль, Фордхэм Сьюзэн, Анупам Кхер, Риши Капур, Ли Николас Харрис, Крис Коулин, Санти Скинелли

Описание: Это история о Самар Ананде, майоре индийской армии из отряда сапёров. Все поражаются, как без капли страха за свою жизнь он обезвреживает бомбы, он совсем не боится смерти. Однажды он спасает тонущую Акиру, репортёра Discovery Channel, и нечаянно забывает у неё свою куртку. Акира находит в ней его дневник и узнаёт историю о Самаре, его единственной любви Мире и одной клятве, которая перевернула всю его жизнь. ..

Качество: DVDRip
Формат: AVI
Видео кодек: XviD
Аудио кодек: AC3
Видео: 720x304 (2.37:1), 29.970 fps, XviD MPEG-4 ~1100 kbps avg, 0.17 bit/pixel
Аудио#1: 48 kHz, AC3 Dolby Digital, 3/2 (L,C,R,l,r) + LFE ch, ~448 kbps [Russian]
Аудио#2: 48 kHz, AC3 Dolby Digital, 2/0 (L,R) ch, ~224 kbps [Hindi]

Полное имя : D:торентыJab.Tak.Hai.Jaan.2012.DVDRip.avi
Формат : AVI
Формат/Информация : Audio Video Interleave
Профиль формата : OpenDML
Размер файла : 2.19 GiB
Продолжительность : 2h 56mn
Общий поток : 1 780 Kbps
Программа кодирования : VirtualDubModRus 1.5.10.2 (build 2542/release)
Библиотека кодирования : VirtualDubMod build 2542/release

Video
Идентификатор : 0
Формат : MPEG-4 Visual
Профиль формата : Advanced Simple@L5
Параметр BVOP формата : 1
Параметр QPel формата : No
Параметр GMC формата : No warppoints
Параметр матрицы формата : Custom
Идентификатор кодека : XVID
Идентификатор кодека/Подсказка : XviD
Продолжительность : 2h 56mn
Битрейт : 1 087 Kbps
Ширина : 720 pixels
Высота : 304 pixels
Соотношение сторон : 2.35:1
Частота кадров : 29.970 fps
Цветовое пространство : YUV
Субдискретизация насыщенности : 4:2:0
Битовая глубина : 8 bits
Тип развёртки : Progressive
Метод сжатия : Lossy
Бит/(Пиксели*Кадры) : 0.166
Размер потока : 1.34 GiB (61%)
Библиотека кодирования : XviD 64

Audio #1
Идентификатор : 1
Формат : AC-3
Формат/Информация : Audio Coding 3
Расширение режима : CM (complete main)
Параметр Endianness формата : Big
Идентификатор кодека : 2000
Продолжительность : 2h 56mn
Вид битрейта : Constant
Битрейт : 448 Kbps
Каналы : 6 channels
Расположение каналов : Front: L C R, Side: L R, LFE
Частота : 48.0 KHz
Битовая глубина : 16 bits
Метод сжатия : Lossy
Размер потока : 564 MiB (25%)
Выравнивание : Split accross interleaves
Продолжительность промежутка : 33 ms (1.00 video frame)
Время предзагрузки промежутка : 500 ms

Audio #2
Идентификатор : 2
Формат : AC-3
Формат/Информация : Audio Coding 3
Расширение режима : CM (complete main)
Параметр Endianness формата : Big
Идентификатор кодека : 2000
Продолжительность : 2h 56mn
Вид битрейта : Constant
Битрейт : 224 Kbps
Каналы : 2 channels
Расположение каналов : Front: L R
Частота : 48.0 KHz
Битовая глубина : 16 bits
Метод сжатия : Lossy
Размер потока : 282 MiB (13%)
Выравнивание : Aligned on interleaves
Продолжительность промежутка : 33 ms (1.00 video frame)
Время предзагрузки промежутка : 512 ms


Пока я жив скачать торрент


freetor.icu



Скачать Пока я жив через торрент https://pic1.kartinco.top/images/111/kxj3hcbgoa.jpg Скачать, смотреть онлайн Пока я жив бесплантно в хорошем качестве Описание: Это история о Самар Ананде, майоре индийской армии из отряда сапёров. Все поражаются, как без капли страха за свою жизнь он ... 9.6 10 11
Info! Золотая раздача, скачанное не засчитывается.
Торрент: Зарегистрирован [2014-01-14 17:05] · скачан: 64 раз
Статус: √ проверено
Размер: 2.19 GB
Как cкачать? Как скачать Пока я жив через торрент | UTorrent

28-11-2019 20:33  

Отключить всю рекламу на сайте

    Дорогой пользователь! Огромная просьба, поблагодарите релизера, оцените раздачу и оставьте свои комментарий, если Вы скачали Пока я жив через торрент бесплатно!
    Комментировать посты могут только пользователи прошедшие не сложную регистрацию
    Показать сообщения:    

    Пока я жив через торрент
    Скачать бесплатно Пока я жив
    Пока я жив скачать торрент
    Пока я жив смотреть онлайн
    Cкачать фильм Пока я жив бесплатно
    Пока я жив скачать торрент в хорошем качестве
    Пока я жив смотреть онлайн бесплатно в хорошем качестве


    Вы не можете начинать темы
    Вы не можете отвечать на сообщения
    Вы не можете редактировать свои сообщения
    Вы не можете удалять свои сообщения
    Вы не можете голосовать в опросах
    Вы не можете прикреплять файлы к сообщениям
    Вы можете скачивать файлы