>

5.6

iTunes

6.1

MVO

5.7

MVO

1

7.4

1 сезон

6.8

iTunes

7.2

1 сезон

13

6.7

1 сезон

8.3

RePack

30

Deluxe

pack

9.9

Лицензия

ВАЖНО

ИГРА 18+

pack

7.3

RePack

MK11

7.7

RePack

jed

7.8

RePack

fifa19

8.5

RePack

RDR2

RePack

NEED FOR SPEED™ PAYBACK

4 сезон

9 сезон

Бесстыжие 9 сезон

Все сериалы

все сериалы на PB.wtf

RePack

FAR CRY 5

Anonymous, добрый день, мы катастрофически не успеваем собрать деньги на оплату серверов, помогите нам пожалуйста 5,10,15р., для нас важна любая помощь . В качестве благодарности мы отключим Вам всю рекламу на сайте (укажите свой ник в строку Ваше имя)!

×
  
Magnet ссылка

Призрак / Aatma (Супэрн Верма / Suparn Verma) [ 2013 , Индия , ужасы, драма , WebRip ] MVO - Zee TV freetor.icu

Призрак через торрент freetor.icu

Размер: 750 MB | Добавлен: 7 лет 8 мес. назад | Торрент скачан:52 раза
Смотреть онлайн Призрак | Скачать    Ребята, помогите собрать деньги на оплату серверов!!!

12-01-2014 04:02 Призрак Скачать торрент  


Призрак / Aatma

«Feel it around you»

Год выпуска:2013
Страна:Индия
Жанр:ужасы, драма

Продолжительность: 01:34:40
Перевод:Профессиональный (многоголосый, закадровый) - Zee TV

Субтитры: Нет
    Режиссер:Супэрн Верма / Suparn Verma
    Сценарий: Супэрн Верма / Suparn Verma, Sudarshana Dwivedi
    Продюсер: Абхишек Патхак / Abhishek Pathak, Индерджит Чадха / Inderjit Chadha, Санджив Джоши / Sanjeev Joshi, Амита Патхак / Amita Pathak, Кумар Мангат / Kumar Mangat Pathak

В ролях:Джайдип Ахлават, Бипаша Басу, Падам Бхола (Pankaj), Даршан Джаривала, Мохан Капур, Шерназ Патель, Тилотама Шом, Навазуддин Сиддикуи, Шивкумар Субраманиам, Гитика Тьяги, Супэрн Верма (Dr. Death)
    Описание:
    История женщины, которая сражается за жизнь дочери, преследуемой призраком ее отца...

Мировая премьера:21 марта 2013 Бюджет:$2 000 000
    Качество:WebRip
    Формат:AVI
    Видео кодек: XviD
    Аудио кодек:MP3
    Видео: XviD, 720x304 (2.35:1), 969 kbps, 24 fps, 0,185 bpp
    Аудио: MP3 / 2.0 / 48 kHz / 128 kbps /


Код:

General
Complete name                            : D:ТорентыПризрак.2013.WebRip.XviD.avi
Format                                   : AVI
Format/Info                              : Audio Video Interleave
File size                                : 750 MiB
Duration                                 : 1h 34mn
Overall bit rate                         : 1 107 Kbps
Movie name                               : Aatma.2013.WebHDRip.XviD.soso4eg
Director                                 : soso4eg
Writing application                      : VirtualDubMod 1.5.10.3 | www.virtualdub-fr.org || (build 2550/release)
Original source form/Name                : Movie
Comment                                  : ZeeTV

Video
ID                                       : 0
Format                                   : MPEG-4 Visual
Format profile                           : Advanced Simple@L5
Format settings, BVOP                    : 2
Format settings, QPel                    : No
Format settings, GMC                     : No warppoints
Format settings, Matrix                  : Default (H.263)
Codec ID                                 : XVID
Codec ID/Hint                            : XviD
Duration                                 : 1h 34mn
Bit rate                                 : 970 Kbps
Width                                    : 720 pixels
Height                                   : 304 pixels
Display aspect ratio                     : 2.35:1
Frame rate                               : 24.000 fps
Color space                              : YUV
Chroma subsampling                       : 4:2:0
Bit depth                                : 8 bits
Scan type                                : Progressive
Compression mode                         : Lossy
Bits/(Pixel*Frame)                       : 0.185
Stream size                              : 657 MiB (88%)
Writing library                          : XviD 1.2.1 (UTC 2008-12-04)

Audio
ID                                       : 1
Format                                   : MPEG Audio
Format version                           : Version 1
Format profile                           : Layer 3
Mode                                     : Joint stereo
Mode extension                           : MS Stereo
Codec ID                                 : 55
Codec ID/Hint                            : MP3
Duration                                 : 1h 34mn
Bit rate mode                            : Constant
Bit rate                                 : 128 Kbps
Channel(s)                               : 2 channels
Sampling rate                            : 48.0 KHz
Compression mode                         : Lossy
Stream size                              : 86.7 MiB (12%)
Alignment                                : Aligned on interleaves
Interleave, duration                     : 42 ms (1.00 video frame)
Interleave, preload duration             : 504 ms


Скриншоты:

Трейлеры к фильмам [2014]

© Оформление by Vetal
freetor.icu



Скачать Призрак через торрент https://pic1.kartinco.top/images/61/ordi9.jpg Скачать, смотреть онлайн Призрак бесплантно в хорошем качестве Описание:История женщины, которая сражается за жизнь дочери, преследуемой призраком ее отца... Мировая премьера:21 марта 2013 Бюджет:$2 ... 10 10 9
Info! Золотая раздача, скачанное не засчитывается.
Торрент: Зарегистрирован [2014-01-12 04:02] · скачан: 52 раз
Статус: √ проверено
Размер: 750 MB
Как cкачать? Как скачать Призрак через торрент | UTorrent

28-11-2019 20:33  

Отключить всю рекламу на сайте

12-01-2014 04:30 Призрак Скачать торрент  

Ухахахахахааааа!!!! :rofle: :rofle: :rofle: Вот это ЖЕСТЬ! Пляски с призраком - это даже не трэш...это...это...да такого слова в лексиконе не существует :rofle:freetor.icu



    Дорогой пользователь! Огромная просьба, поблагодарите релизера, оцените раздачу и оставьте свои комментарий, если Вы скачали Призрак через торрент бесплатно!
    Комментировать посты могут только пользователи прошедшие не сложную регистрацию
    Показать сообщения:    

    Призрак через торрент
    Скачать бесплатно Призрак
    Призрак скачать торрент
    Призрак смотреть онлайн
    Cкачать фильм Призрак бесплатно
    Призрак скачать торрент в хорошем качестве
    Призрак смотреть онлайн бесплатно в хорошем качестве


    Вы не можете начинать темы
    Вы не можете отвечать на сообщения
    Вы не можете редактировать свои сообщения
    Вы не можете удалять свои сообщения
    Вы не можете голосовать в опросах
    Вы не можете прикреплять файлы к сообщениям
    Вы можете скачивать файлы