>

5.6

iTunes

6.1

MVO

5.7

MVO

1

7.4

1 сезон

6.8

iTunes

7.2

1 сезон

13

6.7

1 сезон

8.3

RePack

30

Deluxe

pack

9.9

Лицензия

ВАЖНО

ИГРА 18+

pack

7.3

RePack

MK11

7.7

RePack

jed

7.8

RePack

fifa19

8.5

RePack

RDR2

RePack

NEED FOR SPEED™ PAYBACK

4 сезон

9 сезон

Бесстыжие 9 сезон

Все сериалы

все сериалы на PB.wtf

RePack

FAR CRY 5

Anonymous, добрый день, мы катастрофически не успеваем собрать деньги на оплату серверов, помогите нам пожалуйста 5,10,15р., для нас важна любая помощь . В качестве благодарности мы отключим Вам всю рекламу на сайте (укажите свой ник в строку Ваше имя)!

×
  
Magnet ссылка

Невероятная история / OMG: Oh My God! (Умеш Шукла / Umesh Shukla) [2012, Индия, фэнтези, драма, комедия, HDRip, Профессиональный (многоголосый, закадровый) [BaibaKo] freetor.icu

Невероятная история через торрент freetor.icu

Размер: 2.19 GB | Добавлен: 7 лет 10 мес. назад | Торрент скачан:60 раз
Смотреть онлайн Невероятная история | Скачать    Ребята, помогите собрать деньги на оплату серверов!!!

10-11-2013 13:02 Невероятная история Скачать торрент  


Невероятная история / OMG: Oh My God!

«Kanjibhai is taking God to court!»

  • Год выпуска:2012
  • Страна:Индия
  • Жанр:фэнтези, драма, комедия, семейный

  • Продолжительность: 02:09:32
  • Перевод:Профессиональный (многоголосый, закадровый) [BaibaKo]

  • Субтитры: Нет
    • Режиссер:Умеш Шукла / Umesh Shukla

  • В ролях:Акшай Кумар (Krishna Vasudev Yadav), Пареш Раваль (Kanji Lalji Mehta), Митхун Чакраборти (Leeladhar Maharaj), Ом Пури (Hanif Bhai), Апурва Арора (Jigna), Арун Бали, Хони Чаая (Jagdeesh Bhai), Патхик Десай (Football Guy), Пуджа Гупта (Hanif's daughter), Юсуф Хуссэйн (Judge), Пунам Джхавер (Gopi Maiyya), Бахвеш Мандалиа (Reporter)
    • Описание:
      Сюжет вращается вокруг владельца антикварной лавки Канджи Лалджи Мехты. Вся его жизнь рушится из-за стихийного бедствия. Беспомощный и разбитый, он подвергает сомнению существование Бога и подаёт на «Него» в суд. Когда его поведение приводит к общенациональному хаосу, это привлекает внимание бога Кришны, которого играет Акшай Кумар. Кришна навещает Канджи, так происходит поворот в сюжете.

    • Качество:HDRip
    • Формат:AVI
    • Видео кодек:Xvid
    • Аудио кодек:MP3
    • Видео: XviD, 720x304 (2.35:1), 2022 kbps, 24 fps, 0,385 bpp
    • Аудио №1: MP3 / 2.0 / 48 kHz / 192 kbps /(Russian)
      Аудио №2: MP3 / 2.0 / 48 kHz / 192 kbps / (Hindi)

    • Фильм основан на пьесе «Кишан против Канхайи».
    General
    Complete name : D:ТорентыO.Gospodi.L2.2012.HDRip.avi
    Format : AVI
    Format/Info : Audio Video Interleave
    Format profile : OpenDML
    File size : 2.19 GiB
    Duration : 2h 9mn
    Overall bit rate : 2 424 Kbps
    Writing application : VirtualDubMod 1.5.10.3 (build 2550/release)
    Writing library : VirtualDubMod build 2550/release

    Video
    ID : 0
    Format : MPEG-4 Visual
    Format profile : Advanced Simple@L5
    Format settings, BVOP : 3
    Format settings, QPel : No
    Format settings, GMC : No warppoints
    Format settings, Matrix : Default (H.263)
    Muxing mode : Packed bitstream
    Codec ID : XVID
    Codec ID/Hint : XviD
    Duration : 2h 9mn
    Bit rate : 2 023 Kbps
    Width : 720 pixels
    Height : 304 pixels
    Display aspect ratio : 2.35:1
    Frame rate : 24.000 fps
    Color space : YUV
    Chroma subsampling : 4:2:0
    Bit depth : 8 bits
    Scan type : Progressive
    Compression mode : Lossy
    Bits/(Pixel*Frame) : 0.385
    Stream size : 1.83 GiB (83%)
    Writing library : XviD 64

    Audio #1
    ID : 1
    Format : MPEG Audio
    Format version : Version 1
    Format profile : Layer 3
    Mode : Joint stereo
    Codec ID : 55
    Codec ID/Hint : MP3
    Duration : 2h 9mn
    Bit rate mode : Constant
    Bit rate : 192 Kbps
    Channel(s) : 2 channels
    Sampling rate : 48.0 KHz
    Compression mode : Lossy
    Stream size : 178 MiB (8%)
    Alignment : Aligned on interleaves
    Interleave, duration : 42 ms (1.00 video frame)
    Interleave, preload duration : 504 ms

    Audio #2
    ID : 2
    Format : MPEG Audio
    Format version : Version 1
    Format profile : Layer 3
    Mode : Joint stereo
    Mode extension : MS Stereo
    Codec ID : 55
    Codec ID/Hint : MP3
    Duration : 2h 9mn
    Bit rate mode : Constant
    Bit rate : 192 Kbps
    Channel(s) : 2 channels
    Sampling rate : 48.0 KHz
    Compression mode : Lossy
    Stream size : 178 MiB (8%)
    Alignment : Aligned on interleaves
    Interleave, duration : 42 ms (1.00 video frame)
    Interleave, preload duration : 504 ms
    Writing library : LAME3.98.2





    Трейлеры к фильмам [2013-2014]
    © Оформление by Vetal
    freetor.icu



  • Скачать Невероятная история через торрент http://i58.fastpic.ru/big/2013/0922/31/4683bcd4960801b02604b79f43d30631.png Скачать, смотреть онлайн Невероятная история бесплантно в хорошем качестве Описание:Сюжет вращается вокруг владельца антикварной лавки Канджи Лалджи Мехты. Вся его жизнь рушится из-за стихийного бедствия. ... 8.5 10 8
    Info! Золотая раздача, скачанное не засчитывается.
    Торрент: Зарегистрирован [2013-11-10 13:02] · скачан: 60 раз
    Статус: √ проверено
    Размер: 2.19 GB
    Как cкачать? Как скачать Невероятная история через торрент | UTorrent

    28-11-2019 20:33  

    Отключить всю рекламу на сайте

      Дорогой пользователь! Огромная просьба, поблагодарите релизера, оцените раздачу и оставьте свои комментарий, если Вы скачали Невероятная история через торрент бесплатно!
      Комментировать посты могут только пользователи прошедшие не сложную регистрацию
      Показать сообщения:    

      Невероятная история через торрент
      Скачать бесплатно Невероятная история
      Невероятная история скачать торрент
      Невероятная история смотреть онлайн
      Cкачать фильм Невероятная история бесплатно
      Невероятная история скачать торрент в хорошем качестве
      Невероятная история смотреть онлайн бесплатно в хорошем качестве


      Вы не можете начинать темы
      Вы не можете отвечать на сообщения
      Вы не можете редактировать свои сообщения
      Вы не можете удалять свои сообщения
      Вы не можете голосовать в опросах
      Вы не можете прикреплять файлы к сообщениям
      Вы можете скачивать файлы