>

5.6

iTunes

6.1

MVO

5.7

MVO

1

7.4

1 сезон

6.8

iTunes

7.2

1 сезон

13

6.7

1 сезон

8.3

RePack

30

Deluxe

pack

9.9

Лицензия

ВАЖНО

ИГРА 18+

pack

7.3

RePack

MK11

7.7

RePack

jed

7.8

RePack

fifa19

8.5

RePack

RDR2

RePack

NEED FOR SPEED™ PAYBACK

4 сезон

9 сезон

Бесстыжие 9 сезон

Все сериалы

все сериалы на PB.wtf

RePack

FAR CRY 5

Anonymous, добрый день, мы катастрофически не успеваем собрать деньги на оплату серверов, помогите нам пожалуйста 5,10,15р., для нас важна любая помощь . В качестве благодарности мы отключим Вам всю рекламу на сайте (укажите свой ник в строку Ваше имя)!

×
  
Magnet ссылка

Столик номер 21 / Table No.21 (Адитья Датт / Aditya Datt) [2013, Индия, Триллер, приключения, HDRip] MVO + Original + Sub Rus freetor.icu

Столик номер 21 через торрент freetor.icu

Размер: 2.03 GB | Добавлен: 7 лет 10 мес. назад | Торрент скачан:175 раз
Смотреть онлайн Столик номер 21 | Скачать    Ребята, помогите собрать деньги на оплату серверов!!!

04-11-2013 19:53 Столик номер 21 Скачать торрент  


Столик номер 21 / Table No.21

«IF YOU LIE... YOU DIE»

  • Год выпуска:2013
  • Страна:Индия
  • Жанр:Триллер, приключения

  • Продолжительность: 01:43:54
  • Перевод:Любительский (многоголосый закадровый) - ICG

  • Субтитры: Pусские (полные, песни) [перевод: Rummata]
    • Режиссер:Адитья Датт / Aditya Datt

  • В ролях:Пареш Раваль (Mr. Khan), Раджив Кханделвал (Vivaan Agasthi), Тина Десае (Siya Agasthi), Дхрув Ганеш (Akram), Ашиш Капур (Bittoo), Ханиф Хиляль (Gaouse), Gulam Gouse Deewani (Head technical nerd), Анкит (Bobby), Sumit Rana (Friend #1), Inderjeet Singh Sagoo (Friend #2), Niketa Agarwal (Friend #3), Сана Шайх (Neeti)
    • Описание:
      Семейная пара во время отдыха на Фиджи решила поиграть в «Верю - не верю», но невинная забава превратилась для них в игру на выживание.

    • Качество:HDRip
    • Формат:AVI
    • Видео кодек: XviD
    • Аудио кодек:AC3
    • Видео: XviD, 720x304 (2.35:1), 2324 kbps, 24 fps, 0,443 bpp
    • Аудио №1: AC3 / 2.0 / 48 kHz / 224 kbps / 16 bit[Rus]
      Аудио №2: AC3 / 2.0 / 48 kHz / 224 kbps / 16 bit [Hindi]

    General
    Complete name : D:ТорентыTable.No.21.HDRip.2013.Rus.Original.ICG.GeneralFilmTable.No.21.HDRip.2013.Rus.Original.ICG.GeneralFilm.avi
    Format : AVI
    Format/Info : Audio Video Interleave
    Format profile : OpenDML
    File size : 2.03 GiB
    Duration : 1h 43mn
    Overall bit rate : 2 791 Kbps
    Writing application : VirtualDubModRus 1.5.10.2 (build 2542/release)
    Writing library : VirtualDubMod build 2542/release

    Video
    ID : 0
    Format : MPEG-4 Visual
    Format profile : Advanced Simple@L5
    Format settings, BVOP : 1
    Format settings, QPel : No
    Format settings, GMC : No warppoints
    Format settings, Matrix : Custom
    Codec ID : XVID
    Codec ID/Hint : XviD
    Duration : 1h 43mn
    Bit rate : 2 325 Kbps
    Width : 720 pixels
    Height : 304 pixels
    Display aspect ratio : 2.35:1
    Frame rate : 24.000 fps
    Color space : YUV
    Chroma subsampling : 4:2:0
    Bit depth : 8 bits
    Scan type : Progressive
    Compression mode : Lossy
    Bits/(Pixel*Frame) : 0.443
    Stream size : 1.69 GiB (83%)
    Writing library : XviD 64

    Audio #1
    ID : 1
    Format : AC-3
    Format/Info : Audio Coding 3
    Mode extension : CM (complete main)
    Codec ID : 2000
    Duration : 1h 43mn
    Bit rate mode : Constant
    Bit rate : 224 Kbps
    Channel(s) : 2 channels
    Channel positions : Front: L R
    Sampling rate : 48.0 KHz
    Bit depth : 16 bits
    Compression mode : Lossy
    Stream size : 166 MiB (8%)
    Alignment : Split accross interleaves
    Interleave, duration : 42 ms (1.00 video frame)
    Interleave, preload duration : 500 ms

    Audio #2
    ID : 2
    Format : AC-3
    Format/Info : Audio Coding 3
    Mode extension : CM (complete main)
    Codec ID : 2000
    Duration : 1h 43mn
    Bit rate mode : Constant
    Bit rate : 224 Kbps
    Channel(s) : 2 channels
    Channel positions : Front: L R
    Sampling rate : 48.0 KHz
    Bit depth : 16 bits
    Compression mode : Lossy
    Stream size : 166 MiB (8%)
    Alignment : Aligned on interleaves
    Interleave, duration : 42 ms (1.00 video frame)
    Interleave, preload duration : 512 ms





    Трейлеры к фильмам [2013-2014]
    © Оформление by Vetal
    freetor.icu



  • Скачать Столик номер 21 через торрент http://i58.fastpic.ru/big/2013/0922/31/4683bcd4960801b02604b79f43d30631.png Скачать, смотреть онлайн Столик номер 21 бесплантно в хорошем качестве Описание:Семейная пара во время отдыха на Фиджи решила поиграть в «Верю - не верю», но невинная забава превратилась для них в игру на ... 8.8 10 10
    Info! Золотая раздача, скачанное не засчитывается.
    Торрент: Зарегистрирован [2013-11-04 19:53] · скачан: 175 раз
    Статус: √ проверено
    Размер: 2.03 GB
    Как cкачать? Как скачать Столик номер 21 через торрент | UTorrent

    28-11-2019 20:33  

    Отключить всю рекламу на сайте

      Дорогой пользователь! Огромная просьба, поблагодарите релизера, оцените раздачу и оставьте свои комментарий, если Вы скачали Столик номер 21 через торрент бесплатно!
      Комментировать посты могут только пользователи прошедшие не сложную регистрацию
      Показать сообщения:    

      Столик номер 21 через торрент
      Скачать бесплатно Столик номер 21
      Столик номер 21 скачать торрент
      Столик номер 21 смотреть онлайн
      Cкачать фильм Столик номер 21 бесплатно
      Столик номер 21 скачать торрент в хорошем качестве
      Столик номер 21 смотреть онлайн бесплатно в хорошем качестве


      Вы не можете начинать темы
      Вы не можете отвечать на сообщения
      Вы не можете редактировать свои сообщения
      Вы не можете удалять свои сообщения
      Вы не можете голосовать в опросах
      Вы не можете прикреплять файлы к сообщениям
      Вы можете скачивать файлы