>

5.6

iTunes

6.1

MVO

5.7

MVO

1

7.4

1 сезон

6.8

iTunes

7.2

1 сезон

13

6.7

1 сезон

8.3

RePack

30

Deluxe

pack

9.9

Лицензия

ВАЖНО

ИГРА 18+

pack

7.3

RePack

MK11

7.7

RePack

jed

7.8

RePack

fifa19

8.5

RePack

RDR2

RePack

NEED FOR SPEED™ PAYBACK

4 сезон

9 сезон

Бесстыжие 9 сезон

Все сериалы

все сериалы на PB.wtf

RePack

FAR CRY 5

Anonymous, добрый вечер, мы катастрофически не успеваем собрать деньги на оплату серверов, помогите нам пожалуйста 5,10,15р., для нас важна любая помощь . В качестве благодарности мы отключим Вам всю рекламу на сайте (укажите свой ник в строку Ваше имя)!

×
  
Magnet ссылка

Однажды в Дели / Delhi Belly (Абхинай Део / Abhinay Deo) [2011, Индия, комедия, криминал, DVDRip] MVO(To4ka.TV) Sub Rus freetor.icu

Однажды в Дели через торрент freetor.icu

Размер: 1.69 GB | Добавлен: 7 лет 11 мес. назад | Торрент скачан:10 раз
Смотреть онлайн Однажды в Дели | Скачать    Ребята, помогите собрать деньги на оплату серверов!!!

24-09-2013 05:17 Однажды в Дели Скачать торрент  

Однажды в Дели / Delhi Belly
Год выпуска: 2011
Страна: Индия
Жанр: комедия, криминал,
Продолжительность: 01:42:45
Перевод: Любительский (многоголосый закадровый) (Alex White & Irene Black & Mallika и Хамстер)
Субтитры: Русские. Внешние. [Полные]

Режиссер: Абхинай Део / Abhinay Deo



В ролях: Имран Кхан, Вир Дас, Кунал Рой Капур, Шеназ Треасури, Пурна Джаганатан, Ким Бодниа, Виджай Раз, Пареш Ганатра, Бугс Бхаргава,

Описание: Трое друзей жили не тужили в Дели, пока подруга одного из них Сония не попросила передать пакет с неизвестной начинкой по указанному адресу. Тут-то и началась неразбериха, закружившая героев в водовороте событий, и изменившая их в некотором смысле.
Релиз:
Перевод на русский язык: Margosha

Качество: DVDRip
Формат: AVI
Видео кодек: XviD
Аудио кодек: AC3
Видео: 720x304 (2.35:1), 23.976 fps, 1 449 Kbps
Аудио#1: Русский, 448 Kbps, 48.0 KHz, 6 ch
Аудио#2: Хинди 448 Kbps, 48.0 KHz, 6 ch




General
Complete name : Delhi Belly.2011.DVDRip.Rus.Original.[ICG](To4ka.TV).avi
Format : AVI
Format/Info : Audio Video Interleave
File size : 1.69 GiB
Duration : 1h 42mn
Overall bit rate : 2 359 Kbps
Writing application : VirtualDubModRus 1.5.10.2 (build 2542/release)
Writing library : VirtualDubMod build 2542/release

Video
ID : 0
Format : MPEG-4 Visual
Format profile : Advanced Simple@L5
Format settings, BVOP : Yes
Format settings, QPel : No
Format settings, GMC : No warppoints
Format settings, Matrix : Custom
Codec ID : XVID
Codec ID/Hint : XviD
Duration : 1h 42mn
Bit rate : 1 449 Kbps
Width : 720 pixels
Height : 304 pixels
Display aspect ratio : 2.35:1
Frame rate : 23.976 fps
Color space : YUV
Chroma subsampling : 4:2:0
Bit depth : 8 bits
Scan type : Progressive
Bits/(Pixel*Frame) : 0.276
Stream size : 1.04 GiB (61%)
Writing library : XviD 1.2.1 (UTC 2008-12-04)

Audio #1
ID : 1
Format : AC-3
Format/Info : Audio Coding 3
Mode extension : CM (complete main)
Codec ID : 2000
Duration : 1h 42mn
Bit rate mode : Constant
Bit rate : 448 Kbps
Channel(s) : 6 channels
Channel positions : Front: L C R, Side: L R, LFE
Sampling rate : 48.0 KHz
Bit depth : 16 bits
Stream size : 329 MiB (19%)
Alignment : Split accross interleaves
Interleave, duration : 42 ms (1.00 video frame)
Interleave, preload duration : 500 ms

Audio #2
ID : 2
Format : AC-3
Format/Info : Audio Coding 3
Mode extension : CM (complete main)
Codec ID : 2000
Duration : 1h 42mn
Bit rate mode : Constant
Bit rate : 448 Kbps
Channel(s) : 6 channels
Channel positions : Front: L C R, Side: L R, LFE
Sampling rate : 48.0 KHz
Bit depth : 16 bits
Stream size : 329 MiB (19%)
Alignment : Split accross interleaves
Interleave, duration : 42 ms (1.00 video frame)
Interleave, preload duration : 500 ms


Однажды в Дели скачать торрент


freetor.icu



Скачать Однажды в Дели через торрент https://pic1.kartinco.top/images/41/u3h6g.jpg Скачать, смотреть онлайн Однажды в Дели бесплантно в хорошем качестве Описание: Трое друзей жили не тужили в Дели, пока подруга одного из них Сония не попросила передать пакет с неизвестной начинкой по ... 10 10 6
Info! Золотая раздача, скачанное не засчитывается.
Торрент: Зарегистрирован [2013-09-24 05:17] · скачан: 10 раз
Статус: √ проверено
Размер: 1.69 GB
Как cкачать? Как скачать Однажды в Дели через торрент | UTorrent

28-11-2019 20:33  

Отключить всю рекламу на сайте

    Дорогой пользователь! Огромная просьба, поблагодарите релизера, оцените раздачу и оставьте свои комментарий, если Вы скачали Однажды в Дели через торрент бесплатно!
    Комментировать посты могут только пользователи прошедшие не сложную регистрацию
    Показать сообщения:    

    Однажды в Дели через торрент
    Скачать бесплатно Однажды в Дели
    Однажды в Дели скачать торрент
    Однажды в Дели смотреть онлайн
    Cкачать фильм Однажды в Дели бесплатно
    Однажды в Дели скачать торрент в хорошем качестве
    Однажды в Дели смотреть онлайн бесплатно в хорошем качестве


    Вы не можете начинать темы
    Вы не можете отвечать на сообщения
    Вы не можете редактировать свои сообщения
    Вы не можете удалять свои сообщения
    Вы не можете голосовать в опросах
    Вы не можете прикреплять файлы к сообщениям
    Вы можете скачивать файлы