>

5.6

iTunes

6.1

MVO

5.7

MVO

1

7.4

1 сезон

6.8

iTunes

7.2

1 сезон

13

6.7

1 сезон

8.3

RePack

30

Deluxe

pack

9.9

Лицензия

ВАЖНО

ИГРА 18+

pack

7.3

RePack

MK11

7.7

RePack

jed

7.8

RePack

fifa19

8.5

RePack

RDR2

RePack

NEED FOR SPEED™ PAYBACK

4 сезон

9 сезон

Бесстыжие 9 сезон

Все сериалы

все сериалы на PB.wtf

RePack

FAR CRY 5

Anonymous, добрый вечер, мы катастрофически не успеваем собрать деньги на оплату серверов, помогите нам пожалуйста 5,10,15р., для нас важна любая помощь . В качестве благодарности мы отключим Вам всю рекламу на сайте (укажите свой ник в строку Ваше имя)!

×
  
Magnet ссылка

Храбрец / Himmatwala (Саджит Кхан) [2013 г., Боевик, комедия, DVDRip-AVC, MVO+Original+Sub] freetor.icu

Храбрец через торрент freetor.icu

Размер: 4.83 GB | Добавлен: 8 лет назад | Торрент скачан:90 раз
Смотреть онлайн Храбрец | Скачать    Ребята, помогите собрать деньги на оплату серверов!!!

19-09-2013 09:18 Храбрец Скачать торрент  

Храбрец / Himmatwala
Год выпуска: 2013
Страна: Индия
Жанр: Боевик, комедия,
Продолжительность: 02:26:58
Перевод: Профессиональный многоголосый закадровый (Александр Нелюбин, Александр Галушко, Николай Ерофеев, Ирина Грачева и Марина Комчарукова)
Перевод на русский язык: tonyvika
Субтитры: Russian (UTF-8), Внутри контейнера. [На песни и полные]

Режиссер: Саджит Кхан



В ролях: Аджай Девгн, Таманна Бхатия, Махеш Манджрекар, Пареш Раваль, Зарина Вахаб, Лина Джумани, Адхиаян Суман, Анил Дхаван, Ритеш Дешмукх, Говардан Асрани, Чанки Пандей, Сонакши Синха,

Описание: Рави узнает, что его мать и сестра живы, и возвращается в Рамнагар, где всех терроризируют Шер Сингх и его слуга-помощник Нараян Дас. Ему предстоит навести в Рамнагаре порядок и оправдать своего погибшего отца.
Релиз от:

Качество: DVDRip-AVC
Исходник: DVD9
Формат: MKV
Видео кодек: AVC
Аудио кодек: AC3 DTS
Видео: 1280x544 (2.35:1), 23.976 fps, 2 745 Kbps
Аудио#1: Русский: 448 Kbps, 48.0 KHz, 6 ch
Аудио#2: Хинди: DTS 48 Hz, 6 ch, 1509 Kbps




General
Complete name : Himmatwala.2013.DVDRip-AVC.Rus.Original.ICG.GeneralFilm.mkv
Format : Matroska
File size : 4.83 GiB
Duration : 2h 26mn
Overall bit rate : 4 704 Kbps
Encoded date : UTC 2013-09-03 16:38:54
Writing application : mkvmerge v5.6.0 ('Kenya Kane') built on May 27 2012 16:44:04
Writing library : libebml v1.2.3 + libmatroska v1.3.0

Video
ID : 1
Format : AVC
Format/Info : Advanced Video Codec
Format profile : High@L4.1
Format settings, CABAC : Yes
Format settings, ReFrames : 12 frames
Muxing mode : Container profile=Unknown@4.1
Codec ID : V_MPEG4/ISO/AVC
Duration : 2h 26mn
Bit rate : 2 745 Kbps
Width : 1 280 pixels
Height : 544 pixels
Display aspect ratio : 2.35:1
Frame rate : 23.976 fps
Color space : YUV
Chroma subsampling : 4:2:0
Bit depth : 8 bits
Scan type : Progressive
Bits/(Pixel*Frame) : 0.164
Stream size : 2.72 GiB (56%)
Title : Hon3y
Writing library : x264 core 133 r2334 a3ac64b
Encoding settings : cabac=1 / ref=12 / deblock=1:-1:-1 / analyse=0x3:0x113 / me=umh / subme=10 / psy=1 / psy_rd=1.00:0.10 / mixed_ref=1 / me_range=18 / chroma_me=1 / trellis=2 / 8x8dct=1 / cqm=0 / deadzone=21,11 / fast_pskip=0 / chroma_qp_offset=-3 / threads=12 / lookahead_threads=2 / sliced_threads=0 / nr=0 / decimate=1 / interlaced=0 / bluray_compat=0 / constrained_intra=0 / bframes=8 / b_pyramid=2 / b_adapt=2 / b_bias=0 / direct=1 / weightb=1 / open_gop=0 / weightp=2 / keyint=240 / keyint_min=23 / scenecut=40 / intra_refresh=0 / rc_lookahead=40 / rc=2pass / mbtree=1 / bitrate=2745 / ratetol=1.0 / qcomp=0.60 / qpmin=0 / qpmax=69 / qpstep=4 / cplxblur=20.0 / qblur=0.5 / vbv_maxrate=62500 / vbv_bufsize=78125 / nal_hrd=none / ip_ratio=1.40 / aq=1:1.00
Color primaries : Generic film
Transfer characteristics : BT.709-5, BT.1361
Matrix coefficients : BT.709-5, BT.1361, IEC 61966-2-4 709, SMPTE RP177

Audio #1
ID : 2
Format : AC-3
Format/Info : Audio Coding 3
Mode extension : CM (complete main)
Codec ID : A_AC3
Duration : 2h 26mn
Bit rate mode : Constant
Bit rate : 448 Kbps
Channel(s) : 6 channels
Channel positions : Front: L C R, Side: L R, LFE
Sampling rate : 48.0 KHz
Bit depth : 16 bits
Stream size : 471 MiB (10%)
Title : ICG
Language : Russian

Audio #2
ID : 3
Format : DTS
Format/Info : Digital Theater Systems
Codec ID : A_DTS
Duration : 2h 26mn
Bit rate mode : Constant
Bit rate : 1 510 Kbps
Channel(s) : 6 channels
Channel positions : Front: L C R, Side: L R, LFE
Sampling rate : 48.0 KHz
Bit depth : 24 bits
Stream size : 1.55 GiB (32%)
Language : Hindi

Text #1
ID : 4
Format : UTF-8
Codec ID : S_TEXT/UTF8
Codec ID/Info : UTF-8 Plain Text
Title : На песни
Language : Russian

Text #2
ID : 5
Format : UTF-8
Codec ID : S_TEXT/UTF8
Codec ID/Info : UTF-8 Plain Text
Title : Полные
Language : Russian


Храбрец скачать торрент


freetor.icu



Скачать Храбрец через торрент https://pic1.kartinco.top/images/41/awgyi.jpg Скачать, смотреть онлайн Храбрец бесплантно в хорошем качестве Описание: Рави узнает, что его мать и сестра живы, и возвращается в Рамнагар, где всех терроризируют Шер Сингх и его слуга-помощник Нараян ... 9.5 10 11
Info! Золотая раздача, скачанное не засчитывается.
Торрент: Зарегистрирован [2013-09-19 09:18] · скачан: 90 раз
Статус: √ проверено
Размер: 4.83 GB
Как cкачать? Как скачать Храбрец через торрент | UTorrent

28-11-2019 20:33  

Отключить всю рекламу на сайте

    Дорогой пользователь! Огромная просьба, поблагодарите релизера, оцените раздачу и оставьте свои комментарий, если Вы скачали Храбрец через торрент бесплатно!
    Комментировать посты могут только пользователи прошедшие не сложную регистрацию
    Показать сообщения:    

    Храбрец через торрент
    Скачать бесплатно Храбрец
    Храбрец скачать торрент
    Храбрец смотреть онлайн
    Cкачать фильм Храбрец бесплатно
    Храбрец скачать торрент в хорошем качестве
    Храбрец смотреть онлайн бесплатно в хорошем качестве


    Вы не можете начинать темы
    Вы не можете отвечать на сообщения
    Вы не можете редактировать свои сообщения
    Вы не можете удалять свои сообщения
    Вы не можете голосовать в опросах
    Вы не можете прикреплять файлы к сообщениям
    Вы можете скачивать файлы