1 сезон

3 сезон

iTunes

1

iTunes

DUB Netflix

iTunes

13

1 сезон

RePack

30

Deluxe

pack

Легкие деньги

ВАЖНО

ИГРА 18+

pack

RePack

MK11

RePack

jed

RePack

fifa19

RePack

RDR2

RePack

NEED FOR SPEED™ PAYBACK

4 сезон

9 сезон

Бесстыжие 9 сезон

Все сериалы

все сериалы на PB.wtf

RePack

FAR CRY 5

Anonymous, добрый вечер, мы не успеваем до 1 числа собрать деньги на оплату серверов, помогите нам пожалуйста в это трудное время. В качестве благодарности мы отключим Вам всю рекламу на сайте (укажите свой ник в строку Ваше имя)!

×
  
Magnet ссылка

Замученный / The Tortured (Роберт Либерман / Robert Lieberman) [2009, США, Канада, ужасы, триллер, драма, BDRip-AVC, Профессиональный (многоголосый, закадровый)(R5)+DVO+VO freetor.icu

Замученный через торрент freetor.icu

Размер: 2.32 GB | Добавлен: 7 лет 8 мес. назад | Торрент скачан:165 раз
Скачать  

15-09-2013 22:13 Замученный Скачать торрент  

Замученный / The Tortured

«Жизнь полна боли»

  • Год выпуска:2009
  • Страна:США, Канада
  • Жанр:ужасы, триллер, драма

  • Продолжительность: 01:21:40
  • Перевод:Профессиональный (многоголосый, закадровый)

  • Субтитры: Русские, английские
    • Режиссер:Роберт Либерман / Robert Lieberman
    • Сценарий: Марек Посивал / Marek Posival
    • Продюсер: Карл Маццоконе / Carl Mazzocone, Марек Посивал / Marek Posival, Марк Бёрг / Mark Burg, Орен Каулз / Oren Koules, Трой Бегнод / Troy Begnaud

  • В ролях:Эрика Кристенсен (Elise Landry), Джесси Меткалф (Craig Landry), Билл Липпинкотт (Galligan), Билл Моусли (John Kozlowski), Фульвио Чечере (Detective Berger), Томас Гринвуд (Ben Landry), Стефен Парк (Man in condo), Саманта Гутштадт (Woman in Condo), Зак Сантьяго (Younger Cop), Альфонсо Кихада (Clerk), Джон Р. Тейлор (Pastor), Вив Ликок (Officer Patterson)
    • Описание:
      Жизнь молодой семьи внезапно разрушается, после того как их единственный ребенок был похищен и убит. Одержимые местью родители готовы на все, лишь бы расправиться с убийцей... На что способны убитые горем мать и отец, потерявшие смысл существования?

  • Рейтинг
    kinopoisk.ru: 6.255 (2316)
    imdb.com: 5.40 (3741)
    MPAA: R - Лицам до 17 лет обязательно присутствие взрослого
    • Качество:BDRip-AVC
    • Формат:MKV
    • Видео кодек: AVC
    • Аудио кодек:AC3
    • Видео: AVC, 1024x576 (16:9), 2500 kbps, 23,976 fps, 0,177 bpp
    • Аудио №1: русский / AC3 / 2.0 / 48 kHz / 224 kbps / 16 bit || / Профессиональный многоголосый (R5)
    • Аудио №2: русский / AC3 / 5.1 / 48 kHz / 448 kbps / 16 bit || / Профессиональный двухголосый (НТВ+)
    • Аудио №3: русский / AC3 / 5.1 / 48 kHz / 448 kbps / 16 bit || / Любительский одноголосый (Kerob)
    • Аудио №4: английский / AC3 / 5.1 / 48 kHz / 448 kbps / 16 bit


    General
    Unique ID : 184747279260776827275135732888385406908 (0x8AFD081F46C2A4518B688BB02BD8C7BC)
    Complete name : D:ТорентыIzmuchennyi.2010.x264.BDRip(AVC)-MediaCLub.mkv
    Format : Matroska
    Format version : Version 2
    File size : 2.32 GiB
    Duration : 1h 21mn
    Overall bit rate : 4 067 Kbps
    Movie name : Release - MediaClub Rip by == vvmon ==
    Encoded date : UTC 2013-08-29 19:47:06
    Writing application : mkvmerge v4.5.0 ('Speed of Light') сборка от Feb 1 2011 02:10:32
    Writing library : libebml v1.2.0 + libmatroska v1.1.0

    Video
    ID : 1
    Format : AVC
    Format/Info : Advanced Video Codec
    Format profile : [email protected]
    Format settings, CABAC : Yes
    Format settings, ReFrames : 8 frames
    Codec ID : V_MPEG4/ISO/AVC
    Duration : 1h 21mn
    Bit rate : 2 500 Kbps
    Width : 1 024 pixels
    Height : 576 pixels
    Display aspect ratio : 16:9
    Frame rate : 23.976 fps
    Color space : YUV
    Chroma subsampling : 4:2:0
    Bit depth : 8 bits
    Scan type : Progressive
    Bits/(Pixel*Frame) : 0.177
    Stream size : 1.38 GiB (59%)
    Title : Izmuchennyi.2010.x264.BDRip(AVC)-MediaCLub.mkv
    Writing library : x264 core 133 r2334 a3ac64b
    Encoding settings : cabac=1 / ref=8 / deblock=1:-2:-2 / analyse=0x3:0x133 / me=umh / subme=11 / psy=1 / psy_rd=1.00:0.00 / mixed_ref=1 / me_range=48 / chroma_me=1 / trellis=2 / 8x8dct=1 / cqm=0 / deadzone=21,11 / fast_pskip=0 / chroma_qp_offset=-2 / threads=3 / lookahead_threads=1 / sliced_threads=0 / nr=0 / decimate=0 / interlaced=0 / bluray_compat=0 / constrained_intra=0 / bframes=8 / b_pyramid=2 / b_adapt=2 / b_bias=0 / direct=3 / weightb=1 / open_gop=0 / weightp=2 / keyint=240 / keyint_min=23 / scenecut=40 / intra_refresh=0 / rc=2pass / mbtree=0 / bitrate=2500 / ratetol=1.0 / qcomp=0.60 / qpmin=10 / qpmax=51 / qpstep=4 / cplxblur=20.0 / qblur=0.5 / ip_ratio=1.40 / pb_ratio=1.30 / aq=2:1.00
    Language : English
    Default : Yes
    Forced : No

    Audio #1
    ID : 2
    Format : AC-3
    Format/Info : Audio Coding 3
    Mode extension : CM (complete main)
    Codec ID : A_AC3
    Duration : 1h 21mn
    Bit rate mode : Constant
    Bit rate : 224 Kbps
    Channel(s) : 2 channels
    Channel positions : Front: L R
    Sampling rate : 48.0 KHz
    Bit depth : 16 bits
    Compression mode : Lossy
    Stream size : 131 MiB (6%)
    Title : Профессиональный многоголосый (R5)
    Language : Russian
    Default : Yes
    Forced : No

    Audio #2
    ID : 3
    Format : AC-3
    Format/Info : Audio Coding 3
    Mode extension : CM (complete main)
    Codec ID : A_AC3
    Duration : 1h 21mn
    Bit rate mode : Constant
    Bit rate : 448 Kbps
    Channel(s) : 6 channels
    Channel positions : Front: L C R, Side: L R, LFE
    Sampling rate : 48.0 KHz
    Bit depth : 16 bits
    Compression mode : Lossy
    Stream size : 262 MiB (11%)
    Title : Профессиональный двухголосый (НТВ+)
    Language : Russian
    Default : No
    Forced : No

    Audio #3
    ID : 4
    Format : AC-3
    Format/Info : Audio Coding 3
    Mode extension : CM (complete main)
    Codec ID : A_AC3
    Duration : 1h 21mn
    Bit rate mode : Constant
    Bit rate : 448 Kbps
    Channel(s) : 6 channels
    Channel positions : Front: L C R, Side: L R, LFE
    Sampling rate : 48.0 KHz
    Bit depth : 16 bits
    Compression mode : Lossy
    Stream size : 262 MiB (11%)
    Title : Любительский одноголосый (Kerob)
    Language : Russian
    Default : No
    Forced : No

    Audio #4
    ID : 5
    Format : AC-3
    Format/Info : Audio Coding 3
    Mode extension : CM (complete main)
    Codec ID : A_AC3
    Duration : 1h 21mn
    Bit rate mode : Constant
    Bit rate : 448 Kbps
    Channel(s) : 6 channels
    Channel positions : Front: L C R, Side: L R, LFE
    Sampling rate : 48.0 KHz
    Bit depth : 16 bits
    Compression mode : Lossy
    Stream size : 262 MiB (11%)
    Title : Английский
    Language : English
    Default : No
    Forced : No

    Text #1
    ID : 6
    Format : UTF-8
    Codec ID : S_TEXT/UTF8
    Codec ID/Info : UTF-8 Plain Text
    Title : Русские
    Language : Russian
    Default : Yes
    Forced : No

    Text #2
    ID : 7
    Format : UTF-8
    Codec ID : S_TEXT/UTF8
    Codec ID/Info : UTF-8 Plain Text
    Title : Английские
    Language : English
    Default : No
    Forced : No

    Menu
    00:00:00.000 : :Chapter 01
    00:05:36.002 : :Chapter 02
    00:13:13.001 : :Chapter 03
    00:22:59.044 : :Chapter 04
    00:38:00.904 : :Chapter 05
    00:45:49.997 : :Chapter 06
    00:52:46.997 : :Chapter 07
    01:00:09.981 : :Chapter 08
    01:07:19.911 : :Chapter 09
    01:11:21.944 : :Chapter 10
    01:12:51.993 : :Chapter 11
    01:16:39.929 : :Chapter 12


    © Оформление by Vetalfreetor.icu



  • Скачать Замученный через торрент https://pic1.kartinco.top/images/23/eji4tjxaaf.png Скачать фильм Замученный через торрент бесплантно в хорошем качестве Описание:Жизнь молодой семьи внезапно разрушается, после того как их единственный ребенок был похищен и убит. Одержимые местью родители ... 10 10 8
    Info! Золотая раздача, скачанное не засчитывается.
    Торрент: Зарегистрирован [2013-09-15 22:13] · скачан: 165 раз
    Статус: √ проверено
    Размер: 2.32 GB
    Как cкачать? Как скачать Замученный через торрент | UTorrent

    28-11-2019 20:33  

    Отключить всю рекламу на сайте


    16-09-2013 14:30 Замученный Скачать торрент  

    Шваль или глянуть можно?freetor.icu



    16-09-2013 14:46 Замученный Скачать торрент  

    Упс.. А где сиды? freetor.icu



    16-09-2013 18:38 Замученный Скачать торрент  

    Vetаl писал(а):

    Раздают: 43 [ 2 MB/s ] Качают: 7 [ 639 KB/s ]

    freetor.icu



      Дорогой пользователь! Огромная просьба, поблагодарите релизера, оцените раздачу и оставьте свои комментарий, если Вы скачали Замученный через торрент бесплатно! Внесите свою лепту в развитие PiratBit!
      Комментировать посты могут только пользователи прошедшие не сложную регистрацию
      Показать сообщения:    

      Замученный через торрент
      Скачать бесплатно Замученный
      Замученный скачать торрент
      Замученный смотреть онлайн
      Cкачать фильм Замученный бесплатно
      Замученный скачать торрент в хорошем качестве
      Замученный смотреть онлайн бесплатно в хорошем качестве


      Вы не можете начинать темы
      Вы не можете отвечать на сообщения
      Вы не можете редактировать свои сообщения
      Вы не можете удалять свои сообщения
      Вы не можете голосовать в опросах
      Вы не можете прикреплять файлы к сообщениям
      Вы можете скачивать файлы