>

5.6

iTunes

6.1

MVO

5.7

MVO

1

7.4

1 сезон

6.8

iTunes

7.2

1 сезон

13

6.7

1 сезон

8.3

RePack

30

Deluxe

pack

9.9

Лицензия

ВАЖНО

ИГРА 18+

pack

7.3

RePack

MK11

7.7

RePack

jed

7.8

RePack

fifa19

8.5

RePack

RDR2

RePack

NEED FOR SPEED™ PAYBACK

4 сезон

9 сезон

Бесстыжие 9 сезон

Все сериалы

все сериалы на PB.wtf

RePack

FAR CRY 5

Anonymous, добрый день, мы катастрофически не успеваем собрать деньги на оплату серверов, помогите нам пожалуйста 5,10,15р., для нас важна любая помощь . В качестве благодарности мы отключим Вам всю рекламу на сайте (укажите свой ник в строку Ваше имя)!

×
  
Magnet ссылка

Дон. Главарь мафии 2 / Don 2 (Фархан Ахтар / Farhan Akhtar) [2011,Индия, Германия,боевик, триллер, драма,HDRip, MVO] freetor.icu

Дон. Главарь мафии 2 через торрент freetor.icu

Размер: 1.45 GB | Добавлен: 8 лет назад | Торрент скачан:49 раз
Смотреть онлайн Дон. Главарь мафии 2 | Скачать    Ребята, помогите собрать деньги на оплату серверов!!!

30-08-2013 14:16 Дон. Главарь мафии 2 Скачать торрент  

Дон. Главарь мафии 2 / Don 2

«Get Ready for the Return of the King»

  • Год выпуска:2011
  • Страна:Индия, Германия
  • Жанр:боевик, триллер, драма, криминал, детектив

  • Продолжительность: 02:27:38
  • Перевод:Профессиональный (многоголосый, закадровый)

  • Субтитры: Нет
    • Режиссер:Фархан Ахтар / Farhan Akhtar
    • Сценарий: Фархан Ахтар / Farhan Akhtar, Джавед Ахтар / Javed Akhtar, Салим Хан / Salim Khan
    • Продюсер: Фархан Ахтар / Farhan Akhtar, Шах Рукх Кхан / Shah Rukh Khan, Ритеш Сидхвани / Ritesh Sidhwani, Мириам Джозеф / Miriam Joseph, Канишка Мехта / Kanishka Mehta

  • В ролях:Шах Рукх Кхан (Don), Приянка Чопра (Roma), Ритик Рошан (Don - Special Appearance), Рик Шмид (Yana), Ом Пури (CBI Officer Vishal Malik), Флориан Лукас (Det. Jens Berkel), Боман Ирани (Vardhaan), Лара Дутта (Ayesha), Кунал Капур (Sameer Ali), Мартин Горес (Jabbar's Goon), Вольфганг Штегеман (Karl), Наваб Шах (Jabar)
    • Описание:
      Дону уже принадлежит вся Азия. Однако ему этого мало: он задумал покорить Европу и решил начать с Берлина. Как обычно на его пути стоит спецотряд полиции и многочисленные конкуренты.. ......

  • Рейтинг
    kinopoisk.ru: 7.554 (900)
    imdb.com: 6.80 (19 940)
    • Качество:HDRip
    • Формат:AVI
    • Видео кодек: XviD
    • Аудио кодек:AC3
    • Видео: XviD, 720x304 (2.35:1), 1207 kbps, 24 fps, 0,230 bpp
    • Аудио: AC3 / 2.0 / 48 kHz / 192 kbps / 16 bit

    General
    Complete name : D:ТорентыDon.2.2011.XviD.HDRip.avi
    Format : AVI
    Format/Info : Audio Video Interleave
    File size : 1.45 GiB
    Duration : 2h 27mn
    Overall bit rate : 1 409 Kbps
    Writing application : VirtualDubMod 1.5.10.2 (build 2540/release)
    Writing library : VirtualDubMod build 2540/release

    Video
    ID : 0
    Format : MPEG-4 Visual
    Format profile : Advanced Simple@L5
    Format settings, BVOP : 2
    Format settings, QPel : No
    Format settings, GMC : No warppoints
    Format settings, Matrix : Default (MPEG)
    Muxing mode : Packed bitstream
    Codec ID : XVID
    Codec ID/Hint : XviD
    Duration : 2h 27mn
    Bit rate : 1 208 Kbps
    Width : 720 pixels
    Height : 304 pixels
    Display aspect ratio : 2.35:1
    Frame rate : 24.000 fps
    Color space : YUV
    Chroma subsampling : 4:2:0
    Bit depth : 8 bits
    Scan type : Progressive
    Compression mode : Lossy
    Bits/(Pixel*Frame) : 0.230
    Stream size : 1.25 GiB (86%)
    Writing library : XviD 1.2.1 (UTC 2008-12-04)

    Audio
    ID : 1
    Format : AC-3
    Format/Info : Audio Coding 3
    Mode extension : CM (complete main)
    Codec ID : 2000
    Duration : 2h 27mn
    Bit rate mode : Constant
    Bit rate : 192 Kbps
    Channel(s) : 2 channels
    Channel positions : Front: L R
    Sampling rate : 48.0 KHz
    Bit depth : 16 bits
    Compression mode : Lossy
    Stream size : 203 MiB (14%)
    Alignment : Aligned on interleaves
    Interleave, duration : 42 ms (1.00 video frame)
    Interleave, preload duration : 512 ms

    • Съёмка фильма началась в октябре 2010 года в Берлине.
    • Актеру Куналу Капуру пришлось отказаться от роли в фильме «Tezz » из-за несовместимости графика съемок.

    © Оформление by Vetalfreetor.icu



  • Скачать Дон. Главарь мафии 2 через торрент http://i4.imageban.ru/out/2013/08/30/386ef14ad6188f78b4690f1081bafe3f.jpg Скачать, смотреть онлайн Дон. Главарь мафии 2 бесплантно в хорошем качестве Описание:Дону уже принадлежит вся Азия. Однако ему этого мало: он задумал покорить Европу и решил начать с Берлина. Как обычно на его пути ... 9.5 10 8
    Info! Золотая раздача, скачанное не засчитывается.
    Торрент: Зарегистрирован [2013-08-30 14:16] · скачан: 49 раз
    Статус: √ проверено
    Размер: 1.45 GB
    Как cкачать? Как скачать Дон. Главарь мафии 2 через торрент | UTorrent

    % Раздел Тема Автор DL S | L
    T Индийское кино [ 873 MB ] Дон. Главарь мафии 2 / Don 2 [2011 DVDScreener] paul08 Скачать
    1 | 0

    28-11-2019 20:33  

    Отключить всю рекламу на сайте

      Дорогой пользователь! Огромная просьба, поблагодарите релизера, оцените раздачу и оставьте свои комментарий, если Вы скачали Дон. Главарь мафии 2 через торрент бесплатно!
      Комментировать посты могут только пользователи прошедшие не сложную регистрацию
      Показать сообщения:    

      Дон. Главарь мафии 2 через торрент
      Скачать бесплатно Дон. Главарь мафии 2
      Дон. Главарь мафии 2 скачать торрент
      Дон. Главарь мафии 2 смотреть онлайн
      Cкачать фильм Дон. Главарь мафии 2 бесплатно
      Дон. Главарь мафии 2 скачать торрент в хорошем качестве
      Дон. Главарь мафии 2 смотреть онлайн бесплатно в хорошем качестве


      Вы не можете начинать темы
      Вы не можете отвечать на сообщения
      Вы не можете редактировать свои сообщения
      Вы не можете удалять свои сообщения
      Вы не можете голосовать в опросах
      Вы не можете прикреплять файлы к сообщениям
      Вы можете скачивать файлы