>

5.6

iTunes

6.1

MVO

5.7

MVO

1

7.4

1 сезон

6.8

iTunes

7.2

1 сезон

13

6.7

1 сезон

8.3

RePack

30

Deluxe

pack

9.9

Лицензия

ВАЖНО

ИГРА 18+

pack

7.3

RePack

MK11

7.7

RePack

jed

7.8

RePack

fifa19

8.5

RePack

RDR2

RePack

NEED FOR SPEED™ PAYBACK

4 сезон

9 сезон

Бесстыжие 9 сезон

Все сериалы

все сериалы на PB.wtf

RePack

FAR CRY 5

Anonymous, добрый вечер, мы катастрофически не успеваем собрать деньги на оплату серверов, помогите нам пожалуйста 5,10,15р., для нас важна любая помощь . В качестве благодарности мы отключим Вам всю рекламу на сайте (укажите свой ник в строку Ваше имя)!

×
  
Magnet ссылка

Поиск / Talaash (Рима Кагти / Reema Kagti) [2012, Индия, триллер, драма, криминал, HDRip, Любительский (многоголосый) [ICG] ] freetor.icu

Поиск через торрент freetor.icu

Размер: 2.18 GB | Добавлен: 8 лет 1 мес. назад | Торрент скачан:49 раз
Смотреть онлайн Поиск | Скачать    Ребята, помогите собрать деньги на оплату серверов!!!

03-08-2013 22:09 Поиск Скачать торрент  

Поиск / Talaash

«The Answer Lies Within»

  • Год выпуска:2012
  • Страна:Индия
  • Жанр:триллер, драма, криминал, детектив
  • Продолжительность: 02:20:32
  • Перевод:Любительский (многоголосый) [ICG]

  • Субтитры: Нет
    • Режиссер:Рима Кагти / Reema Kagti

  • В ролях:Аамир Кхан (Inspector Surjan Singh Shekhawat), Карина Капур (Rosie / Simran), Рани Мукхерджи (Roshni Shekhawat), Навазуддин Сиддикуи (Tehmur), Радж Кумар Ядав (Devrath Kulkarni), Шерназ Патель (Frenny), Адити Васудев (Mallika), Шиба Чадха (Nirmala), Шивани Танксале (Roshni's friend), Гулфам Кхан (Madam), Виван Батена (Armaan Kapoor), Ом Пракаш (Yuvraj)
    • Описание:
      Инспектору Шекхвату ранним утром сообщают о несчастном случае и смерти кинозвезды Армана Капура, автомобиль которого ломает заграждения в районе Красных фонарей и падает в море. То, что сначала выглядит как простое расследование автомобильной аварии предстает рядом таинственных загадок. Что в такое время делал актёр в этом районе, расположенном не по дороге от его офиса в киногородке и не по дороге к его дому? Почему перед смертью Арман получил у своего бухгалтера наличными 2 млн. рупий? Почему на безлюдной улице трезвый актёр не удержал машину? У Шекхавата в личной жизни своя трагедия - погибший десятилетний сын и сломанная семейная жизнь. Распутать преступление Шекхавату во многом помогает путана Рози.

  • Рейтинг
    kinopoisk.ru: 7.968 (260)
    imdb.com: 7.30 (13 710)
    • Качество:HDRip
    • Формат:AVI
    • Видео кодек: XviD
    • Аудио кодек: AC3
    • Видео: XviD, 720x304 (2.35:1), 1755 kbps, 23,976 fps, 0,335 bpp
    • Аудио: AC3 / 5.1 / 48 kHz / 448 kbps / 16 bit


    General
    Complete name : D:ТорентыPoisk.Rassledovanie.2012.XviD.HDRip.avi
    Format : AVI
    Format/Info : Audio Video Interleave
    Format profile : OpenDML
    File size : 2.18 GiB
    Duration : 2h 20mn
    Overall bit rate : 2 216 Kbps
    Writing application : VirtualDubMod 1.5.10.3 (build 2550/release)
    Writing library : VirtualDubMod build 2550/release

    Video
    ID : 0
    Format : MPEG-4 Visual
    Format profile : Advanced Simple@L5
    Format settings, BVOP : 2
    Format settings, QPel : No
    Format settings, GMC : No warppoints
    Format settings, Matrix : Custom
    Codec ID : XVID
    Codec ID/Hint : XviD
    Duration : 2h 20mn
    Bit rate : 1 756 Kbps
    Width : 720 pixels
    Height : 304 pixels
    Display aspect ratio : 2.35:1
    Frame rate : 23.976 fps
    Color space : YUV
    Chroma subsampling : 4:2:0
    Bit depth : 8 bits
    Scan type : Progressive
    Compression mode : Lossy
    Bits/(Pixel*Frame) : 0.335
    Stream size : 1.72 GiB (79%)
    Writing library : XviD 73

    Audio
    ID : 1
    Format : AC-3
    Format/Info : Audio Coding 3
    Mode extension : CM (complete main)
    Codec ID : 2000
    Duration : 2h 20mn
    Bit rate mode : Constant
    Bit rate : 448 Kbps
    Channel(s) : 6 channels
    Channel positions : Front: L C R, Side: L R, LFE
    Sampling rate : 48.0 KHz
    Bit depth : 16 bits
    Compression mode : Lossy
    Stream size : 450 MiB (20%)
    Alignment : Split accross interleaves
    Interleave, duration : 42 ms (1.00 video frame)
    Interleave, preload duration : 500 ms


    © Оформление by Vetalfreetor.icu



  • Скачать Поиск через торрент https://pic1.kartinco.top/images/23/ls71xonx13.jpg Скачать, смотреть онлайн Поиск бесплантно в хорошем качестве Описание:Инспектору Шекхвату ранним утром сообщают о несчастном случае и смерти кинозвезды Армана Капура, автомобиль которого ломает ... 9.3 10 6
    Info! Золотая раздача, скачанное не засчитывается.
    Торрент: Зарегистрирован [2013-08-03 22:09] · скачан: 49 раз
    Статус: T временная
    Размер: 2.18 GB
    Как cкачать? Как скачать Поиск через торрент | UTorrent

    28-11-2019 20:33  

    Отключить всю рекламу на сайте

      Дорогой пользователь! Огромная просьба, поблагодарите релизера, оцените раздачу и оставьте свои комментарий, если Вы скачали Поиск через торрент бесплатно!
      Комментировать посты могут только пользователи прошедшие не сложную регистрацию
      Показать сообщения:    

      Поиск через торрент
      Скачать бесплатно Поиск
      Поиск скачать торрент
      Поиск смотреть онлайн
      Cкачать фильм Поиск бесплатно
      Поиск скачать торрент в хорошем качестве
      Поиск смотреть онлайн бесплатно в хорошем качестве


      Вы не можете начинать темы
      Вы не можете отвечать на сообщения
      Вы не можете редактировать свои сообщения
      Вы не можете удалять свои сообщения
      Вы не можете голосовать в опросах
      Вы не можете прикреплять файлы к сообщениям
      Вы можете скачивать файлы