>

5.6

iTunes

6.1

MVO

5.7

MVO

1

7.4

1 сезон

6.8

iTunes

7.2

1 сезон

13

6.7

1 сезон

8.3

RePack

30

Deluxe

pack

9.9

Лицензия

ВАЖНО

ИГРА 18+

pack

7.3

RePack

MK11

7.7

RePack

jed

7.8

RePack

fifa19

8.5

RePack

RDR2

RePack

NEED FOR SPEED™ PAYBACK

4 сезон

9 сезон

Бесстыжие 9 сезон

Все сериалы

все сериалы на PB.wtf

RePack

FAR CRY 5

Anonymous, доброй ночи, мы катастрофически не успеваем собрать деньги на оплату серверов, помогите нам пожалуйста 5,10,15р., для нас важна любая помощь . В качестве благодарности мы отключим Вам всю рекламу на сайте (укажите свой ник в строку Ваше имя)!

×
  
Magnet ссылка

Атаки 26/11 / The Attacks of 26/11 (Рам Гопал Варма / Ram Gopal Varma) [2013, Индия, Драма, DVDRip] VO [Александр Нелюбин] + Original freetor.icu

Атаки 26 через торрент freetor.icu

Размер: 1.77 GB | Добавлен: 8 лет 2 мес. назад | Торрент скачан:17 раз
Смотреть онлайн Атаки 26 | Скачать    Ребята, помогите собрать деньги на оплату серверов!!!

16-07-2013 15:59 Атаки 26 Скачать торрент  

Атаки 26/11 / The Attacks of 26/11


  • Год выпуска:2013
  • Страна: Индия
  • Жанр:драма
  • Продолжительность: 01:49:54
  • Перевод:Любительский (одноголосый)[Александр Нелюбин]

  • Субтитры: Нет
    • Режиссер: Рам Гопал Варма / Ram Gopal Varma
    • Сценарий:Прашант Пандеу / Prashant Pandey, Роммель Родригез / Rommel Rodrigues

  • В ролях:Нана Патекар (Joint Police Comissioner), Атул Кулкарни, Ганеш Ядав, Ferzad Jehani, Азиф Басра (Taxi Driver), Санджив Джайсвал (Ajmal Qasab), Farzad Jehani (Leopold Cafe Owner), Джитендра Джоши (Constable), Радж Кала, Пракаш Рамчандани, Ганеш Ядав (Amar Singh)
    • Описание:
      Правдивая история о серии терактов осуществленных в Мумбаи 26 ноября 2008.

  • Рейтинг
    imdb.com: 6.70 (1 495)
    • Качество:DVDRip
    • Формат: AVI
    • Видео кодек: XviD
    • Аудио кодек: AC3
    • Видео: XviD, 720x304 (2.35:1), 1396 kbps, 23,976 fps, 0,266 bpp
    • Аудио №1: AC3 / 5.1 / 48 kHz / 448 kbps / 16 bit-русский
      Аудио №2: AC3 / 5.1 / 48 kHz / 448 kbps / 16 bit- хинди

    General
    Complete name : D:ТорентыThe.Attacks.Of.26-11.2012.DVDRip.Rus.Original.avi
    Format : AVI
    Format/Info : Audio Video Interleave
    File size : 1.77 GiB
    Duration : 1h 49mn
    Overall bit rate : 2 307 Kbps
    Writing application : VirtualDubModRus 1.5.10.2 (build 2542/release)
    Writing library : VirtualDubMod build 2542/release

    Video
    ID : 0
    Format : MPEG-4 Visual
    Format profile : Advanced Simple@L5
    Format settings, BVOP : 3
    Format settings, QPel : No
    Format settings, GMC : No warppoints
    Format settings, Matrix : Default (MPEG)
    Codec ID : XVID
    Codec ID/Hint : XviD
    Duration : 1h 49mn
    Bit rate : 1 397 Kbps
    Width : 720 pixels
    Height : 304 pixels
    Display aspect ratio : 2.35:1
    Frame rate : 23.976 fps
    Color space : YUV
    Chroma subsampling : 4:2:0
    Bit depth : 8 bits
    Scan type : Progressive
    Compression mode : Lossy
    Bits/(Pixel*Frame) : 0.266
    Stream size : 1.07 GiB (61%)
    Writing library : XviD 1.2.1 (UTC 2008-12-04)

    Audio #1
    ID : 1
    Format : AC-3
    Format/Info : Audio Coding 3
    Mode extension : CM (complete main)
    Codec ID : 2000
    Duration : 1h 49mn
    Bit rate mode : Constant
    Bit rate : 448 Kbps
    Channel(s) : 6 channels
    Channel positions : Front: L C R, Side: L R, LFE
    Sampling rate : 48.0 KHz
    Bit depth : 16 bits
    Compression mode : Lossy
    Stream size : 352 MiB (19%)
    Alignment : Split accross interleaves
    Interleave, duration : 42 ms (1.00 video frame)
    Interleave, preload duration : 500 ms

    Audio #2
    ID : 2
    Format : AC-3
    Format/Info : Audio Coding 3
    Mode extension : CM (complete main)
    Codec ID : 2000
    Duration : 1h 49mn
    Bit rate mode : Constant
    Bit rate : 448 Kbps
    Channel(s) : 6 channels
    Channel positions : Front: L C R, Side: L R, LFE
    Sampling rate : 48.0 KHz
    Bit depth : 16 bits
    Compression mode : Lossy
    Stream size : 352 MiB (19%)
    Alignment : Split accross interleaves
    Interleave, duration : 42 ms (1.00 video frame)
    Interleave, preload duration : 500 ms
    Сценарий: Прашант Пандеу / Prashant Pandey, Роммель Родригез / Rommel Rodrigues
    Оператор: Harshraj Shroff, M. Ravichandran Thevar

    Сборы в США: $248 346

    Мировая премьера: 28 февраля 2013


    © Оформление by Vetalfreetor.icu



  • Скачать Атаки 26 через торрент http://i6.imageban.ru/out/2013/07/16/1ce3068bce7007b0f592055ae307893e.jpg Скачать, смотреть онлайн Атаки 26 бесплантно в хорошем качестве Описание:Правдивая история о серии терактов осуществленных в Мумбаи 26 ноября 2008.Рейтингimdb.com: 70 (1 ... 8.3 10 7
    Info! Золотая раздача, скачанное не засчитывается.
    Торрент: Зарегистрирован [2013-07-16 15:59] · скачан: 17 раз
    Статус: √ проверено
    Размер: 1.77 GB
    Как cкачать? Как скачать Атаки 26 через торрент | UTorrent

    28-11-2019 20:33  

    Отключить всю рекламу на сайте

    21-11-2013 18:33 Атаки 26 Скачать торрент  

    Сип братья))freetor.icu



      Дорогой пользователь! Огромная просьба, поблагодарите релизера, оцените раздачу и оставьте свои комментарий, если Вы скачали Атаки 26 через торрент бесплатно!
      Комментировать посты могут только пользователи прошедшие не сложную регистрацию
      Показать сообщения:    

      Атаки 26 через торрент
      Скачать бесплатно Атаки 26
      Атаки 26 скачать торрент
      Атаки 26 смотреть онлайн
      Cкачать фильм Атаки 26 бесплатно
      Атаки 26 скачать торрент в хорошем качестве
      Атаки 26 смотреть онлайн бесплатно в хорошем качестве


      Вы не можете начинать темы
      Вы не можете отвечать на сообщения
      Вы не можете редактировать свои сообщения
      Вы не можете удалять свои сообщения
      Вы не можете голосовать в опросах
      Вы не можете прикреплять файлы к сообщениям
      Вы можете скачивать файлы