>

5.6

iTunes

6.1

MVO

5.7

MVO

1

7.4

1 сезон

6.8

iTunes

7.2

1 сезон

13

6.7

1 сезон

8.3

RePack

30

Deluxe

pack

9.9

Лицензия

ВАЖНО

ИГРА 18+

pack

7.3

RePack

MK11

7.7

RePack

jed

7.8

RePack

fifa19

8.5

RePack

RDR2

RePack

NEED FOR SPEED™ PAYBACK

4 сезон

9 сезон

Бесстыжие 9 сезон

Все сериалы

все сериалы на PB.wtf

RePack

FAR CRY 5

Anonymous, доброе утро, мы катастрофически не успеваем собрать деньги на оплату серверов, помогите нам пожалуйста 5,10,15р., для нас важна любая помощь . В качестве благодарности мы отключим Вам всю рекламу на сайте (укажите свой ник в строку Ваше имя)!

×
  
Magnet ссылка

Любовь в Париже / Ishkq in Paris (Прем Сони / Prem Soni) [ 2013 , Индия , мелодрама, комедия , WEB-DLRip ] VO [datynet] freetor.icu

Любовь в Париже через торрент freetor.icu

Размер: 1.36 GB | Добавлен: 8 лет 2 мес. назад | Торрент скачан:157 раз
Смотреть онлайн Любовь в Париже | Скачать    Ребята, помогите собрать деньги на оплату серверов!!!

13-07-2013 14:59 Любовь в Париже Скачать торрент  

Любовь в Париже / Ishkq in Paris


  • Год выпуска:2013
  • Страна: Индия
  • Жанр:мелодрама, комедия
  • Продолжительность: 01:31:23
  • Перевод:Любительский (одноголосый) [datynet]

  • Субтитры: Нет
    • Режиссер: Прем Сони / Prem Soni
    • Продюсер:Неелу Зинта / Neelu Zinta, Прити Зинта / Preity Zinta, Акаш Арора / Akash Arora, Кенеди Бакши / Kenedy Bakshi, Гхантешвар Т. Гуру / Ghanteshwar T. Guru
    • Сценарий:Прем Сони / Prem Soni, Прити Зинта / Preity Zinta

  • В ролях:Прити Зинта (Ishkq), Изабель Аджани (Maria), Гаурав Чанана (Akash), Шекхар Капур, Салман Кхан, Санджай Лафонт (Karan)
    • Описание:
      Акаш и Ишк, двое совершенно незнакомых людей, познакомившись в поезде из Рима в Париж, в конечном итоге проводят вместе вечер в романтическом городе.

  • Рейтинг
    kinopoisk.ru: 6.500 (33)
    imdb.com: 3.40 (231)
    • Качество:WEB-DLRip
    • Формат: AVI
    • Видео кодек: XviD
    • Аудио кодек: AC3
    • Видео: XviD, 720x304 (2.35:1), 1672 kbps, 23,976 fps, 0,319 bpp
    • Аудио №1: AC3 / 2.0 / 48 kHz / 224 kbps / 16 bit [ Russian]
      Аудио №2: AC3 / 2.0 / 48 kHz / 224 kbps / 16 bit [Hindi]

    General
    Complete name : D:ТорентыLubov.v.parizhe.2013.WEBRip.1400Mb.avi
    Format : AVI
    Format/Info : Audio Video Interleave
    File size : 1.36 GiB
    Duration : 1h 31mn
    Overall bit rate : 2 135 Kbps
    Writing application : VirtualDubMod 1.5.10.2 (build 2540/release)

    Video
    ID : 0
    Format : MPEG-4 Visual
    Format profile : Advanced Simple@L5
    Format settings, BVOP : 3
    Format settings, QPel : No
    Format settings, GMC : No warppoints
    Format settings, Matrix : Default (MPEG)
    Codec ID : XVID
    Codec ID/Hint : XviD
    Duration : 1h 31mn
    Bit rate : 1 673 Kbps
    Width : 720 pixels
    Height : 304 pixels
    Display aspect ratio : 2.35:1
    Frame rate : 23.976 fps
    Color space : YUV
    Chroma subsampling : 4:2:0
    Bit depth : 8 bits
    Scan type : Progressive
    Compression mode : Lossy
    Bits/(Pixel*Frame) : 0.319
    Stream size : 1.07 GiB (78%)
    Writing library : XviD 1.2.1 (UTC 2008-12-04)

    Audio #1
    ID : 1
    Format : AC-3
    Format/Info : Audio Coding 3
    Mode extension : CM (complete main)
    Codec ID : 2000
    Duration : 1h 31mn
    Bit rate mode : Constant
    Bit rate : 224 Kbps
    Channel(s) : 2 channels
    Channel positions : Front: L R
    Sampling rate : 48.0 KHz
    Bit depth : 16 bits
    Compression mode : Lossy
    Stream size : 146 MiB (10%)
    Alignment : Split accross interleaves
    Interleave, duration : 42 ms (1.00 video frame)
    Interleave, preload duration : 500 ms

    Audio #2
    ID : 2
    Format : AC-3
    Format/Info : Audio Coding 3
    Mode extension : CM (complete main)
    Codec ID : 2000
    Duration : 1h 31mn
    Bit rate mode : Constant
    Bit rate : 224 Kbps
    Channel(s) : 2 channels
    Channel positions : Front: L R
    Sampling rate : 48.0 KHz
    Bit depth : 16 bits
    Compression mode : Lossy
    Stream size : 146 MiB (10%)
    Alignment : Split accross interleaves
    Interleave, duration : 42 ms (1.00 video frame)
    Interleave, preload duration : 500 ms
    Сценарий: Прем Сони / Prem Soni, Прити Зинта / Preity Zinta
    Продюсер: Неелу Зинта / Neelu Zinta, Прити Зинта / Preity Zinta, Акаш Арора / Akash Arora, Кенеди Бакши / Kenedy Bakshi, Гхантешвар Т. Гуру / Ghanteshwar T. Guru
    Оператор: Мануш Нандан / Manush Nandan
    Композитор: Саджид Али / Sajid Ali, Ваджид Али / Wajid Ali

    Мировая премьера: 23 мая 2013


    © Оформление by Vetalfreetor.icu



  • Скачать Любовь в Париже через торрент http://i6.imageban.ru/out/2013/07/13/08d73f6b229bed09856feac6eebb0a1b.jpg Скачать, смотреть онлайн Любовь в Париже бесплантно в хорошем качестве Описание:Акаш и Ишк, двое совершенно незнакомых людей, познакомившись в поезде из Рима в Париж, в конечном итоге проводят вместе вечер в ... 8.9 10 8
    Info! Золотая раздача, скачанное не засчитывается.
    Торрент: Зарегистрирован [2013-07-13 14:59] · скачан: 157 раз
    Статус: T временная
    Размер: 1.36 GB
    Как cкачать? Как скачать Любовь в Париже через торрент | UTorrent

    28-11-2019 20:33  

    Отключить всю рекламу на сайте

      Дорогой пользователь! Огромная просьба, поблагодарите релизера, оцените раздачу и оставьте свои комментарий, если Вы скачали Любовь в Париже через торрент бесплатно!
      Комментировать посты могут только пользователи прошедшие не сложную регистрацию
      Показать сообщения:    

      Любовь в Париже через торрент
      Скачать бесплатно Любовь в Париже
      Любовь в Париже скачать торрент
      Любовь в Париже смотреть онлайн
      Cкачать фильм Любовь в Париже бесплатно
      Любовь в Париже скачать торрент в хорошем качестве
      Любовь в Париже смотреть онлайн бесплатно в хорошем качестве


      Вы не можете начинать темы
      Вы не можете отвечать на сообщения
      Вы не можете редактировать свои сообщения
      Вы не можете удалять свои сообщения
      Вы не можете голосовать в опросах
      Вы не можете прикреплять файлы к сообщениям
      Вы можете скачивать файлы