>

5.6

iTunes

6.1

MVO

5.7

MVO

1

7.4

1 сезон

6.8

iTunes

7.2

1 сезон

13

6.7

1 сезон

8.3

RePack

30

Deluxe

pack

9.9

Лицензия

ВАЖНО

ИГРА 18+

pack

7.3

RePack

MK11

7.7

RePack

jed

7.8

RePack

fifa19

8.5

RePack

RDR2

RePack

NEED FOR SPEED™ PAYBACK

4 сезон

9 сезон

Бесстыжие 9 сезон

Все сериалы

все сериалы на PB.wtf

RePack

FAR CRY 5

Anonymous, добрый вечер, мы катастрофически не успеваем собрать деньги на оплату серверов, помогите нам пожалуйста 5,10,15р., для нас важна любая помощь . В качестве благодарности мы отключим Вам всю рекламу на сайте (укажите свой ник в строку Ваше имя)!

×
  
Magnet ссылка

Темная сторона желания 2 / Jism 2 (Пуджа Бхатт) [2012 г., триллер, драма, мелодрама, HDRip, MVO] freetor.icu

Темная сторона желания 2 через торрент freetor.icu

Размер: 2.19 GB | Добавлен: 8 лет 3 мес. назад | Торрент скачан:27 раз
Смотреть онлайн Темная сторона желания 2 | Скачать    Ребята, помогите собрать деньги на оплату серверов!!!

10-06-2013 10:57 Темная сторона желания 2 Скачать торрент  

Темная сторона желания 2 / Jism 2Год выпуска: 2012
Страна: Индия / Clockwork Films, Fish Eye Network
Жанр: триллер, драма, мелодрама,
Продолжительность: 02:09:42
Перевод: Любительский многоголосый

Режиссер: Пуджа Бхатт



В ролях: Рандип Худа, Санни Леоне, Арунодай Синкх, Джунайид Бин Фахрул, Имран Заид, Ариф Закария,

Описание: Меня зовут Изна. Я порнозвезда. Всю свою жизнь моё тело развлекало людей. А сегодня я умираю в полном одиночестве. Но перед смертью я обязана кое-что сделать. Я должна у одного человека попросить прощения за свои ошибки. Но сможет ли он меня простить? Или после смерти я вечно буду гореть в аду? Этому положила начало любовь. Любовь.

Качество: HDRip
Формат: AVI
Видео кодек: XviD
Аудио кодек: AC3
Видео: 1738 Kb/s, 720x304, 24 fps
Аудио#1: AC3, 448 Kb/s (6 ch), 48 kHz
Аудио#2: AC3, 224 Kb/s (2 ch), 48 kHz

Общее
Полное имя : E:Download-UT++Jism.2.2012.HDRip.Rus.Original.ICG.avi
Формат : AVI
Формат/Информация : Audio Video Interleave
Профиль формата : OpenDML
Размер файла : 2,19 Гбайт
Продолжительность : 2 ч. 9 м.
Общий поток : 2417 Кбит/сек
Программа кодирования : VirtualDubModRus 1.5.10.2 (build 2542/release)
Библиотека кодирования : VirtualDubMod build 2542/release

Видео
Идентификатор : 0
Формат : MPEG-4 Visual
Профиль формата : Advanced Simple@L5
Параметр BVOP формата : 2
Параметр QPel формата : Нет
Параметр GMC формата : Без точки перехода
Параметр матрицы формата : Default (H.263)
Режим смешивания : Сжатый битовый поток
Идентификатор кодека : XVID
Идентификатор кодека/Подсказка : XviD
Продолжительность : 2 ч. 9 м.
Битрейт : 1727 Кбит/сек
Ширина : 720 пикселей
Высота : 304 пикселя
Соотношение сторон : 2,35:1
Частота кадров : 24,000 кадра/сек
Цветовое пространство : YUV
Субдискретизация насыщенности : 4:2:0
Битовая глубина : 8 бит
Тип развёртки : Прогрессивная
Метод сжатия : С потерями
Бит/(Пиксели*Кадры) : 0.329
Размер потока : 1,56 Гбайт (71%)
Библиотека кодирования : XviD 64

Аудио #1
Идентификатор : 1
Формат : AC-3
Формат/Информация : Audio Coding 3
Расширение режима : CM (complete main)
Параметр Endianness формата : Big
Идентификатор кодека : 2000
Продолжительность : 2 ч. 9 м.
Вид битрейта : Постоянный
Битрейт : 448 Кбит/сек
Каналы : 6 каналов
Расположение каналов : Front: L C R, Side: L R, LFE
Частота : 48,0 КГц
Битовая глубина : 16 бит
Метод сжатия : С потерями
Размер потока : 416 Мбайт (19%)
Выравнивание : Разделение по промежуткам
Продолжительность промежутка : 42 мс. (1,00 видеокадр)
Время предзагрузки промежутка : 500 мс.

Аудио #2
Идентификатор : 2
Формат : AC-3
Формат/Информация : Audio Coding 3
Расширение режима : CM (complete main)
Параметр Endianness формата : Big
Идентификатор кодека : 2000
Продолжительность : 2 ч. 9 м.
Вид битрейта : Постоянный
Битрейт : 224 Кбит/сек
Каналы : 2 канала
Расположение каналов : Front: L R
Частота : 48,0 КГц
Битовая глубина : 16 бит
Метод сжатия : С потерями
Размер потока : 208 Мбайт (9%)
Выравнивание : Соединение по промежуткам
Продолжительность промежутка : 42 мс. (1,00 видеокадр)
Время предзагрузки промежутка : 512 мс.

freetor.icu



Скачать Темная сторона желания 2 через торрент http://uploadpic.ru/img/2013-06/10/s42bh0wbpi3pkn8ou5b4vedxh.jpg Скачать, смотреть онлайн Темная сторона желания 2 бесплантно в хорошем качестве Описание: Меня зовут Изна. Я порнозвезда. Всю свою жизнь моё тело развлекало людей. А сегодня я умираю в полном одиночестве. Но перед ... 9.5 10 6
Info! Золотая раздача, скачанное не засчитывается.
Торрент: Зарегистрирован [2013-06-10 10:57] · скачан: 27 раз
Статус: T временная
Размер: 2.19 GB
Как cкачать? Как скачать Темная сторона желания 2 через торрент | UTorrent

28-11-2019 20:33  

Отключить всю рекламу на сайте

    Дорогой пользователь! Огромная просьба, поблагодарите релизера, оцените раздачу и оставьте свои комментарий, если Вы скачали Темная сторона желания 2 через торрент бесплатно!
    Комментировать посты могут только пользователи прошедшие не сложную регистрацию
    Показать сообщения:    

    Темная сторона желания 2 через торрент
    Скачать бесплатно Темная сторона желания 2
    Темная сторона желания 2 скачать торрент
    Темная сторона желания 2 смотреть онлайн
    Cкачать фильм Темная сторона желания 2 бесплатно
    Темная сторона желания 2 скачать торрент в хорошем качестве
    Темная сторона желания 2 смотреть онлайн бесплатно в хорошем качестве


    Вы не можете начинать темы
    Вы не можете отвечать на сообщения
    Вы не можете редактировать свои сообщения
    Вы не можете удалять свои сообщения
    Вы не можете голосовать в опросах
    Вы не можете прикреплять файлы к сообщениям
    Вы можете скачивать файлы