>

5.6

iTunes

6.1

MVO

5.7

MVO

1

7.4

1 сезон

6.8

iTunes

7.2

1 сезон

13

6.7

1 сезон

8.3

RePack

30

Deluxe

pack

9.9

Лицензия

ВАЖНО

ИГРА 18+

pack

7.3

RePack

MK11

7.7

RePack

jed

7.8

RePack

fifa19

8.5

RePack

RDR2

RePack

NEED FOR SPEED™ PAYBACK

4 сезон

9 сезон

Бесстыжие 9 сезон

Все сериалы

все сериалы на PB.wtf

RePack

FAR CRY 5

Anonymous, доброй ночи, мы катастрофически не успеваем собрать деньги на оплату серверов, помогите нам пожалуйста 5,10,15р., для нас важна любая помощь . В качестве благодарности мы отключим Вам всю рекламу на сайте (укажите свой ник в строку Ваше имя)!

×
  
Magnet ссылка

Иди, Гоа больше нет / Go Goa Gone (Кришна Д / Krishna D.K., Радж Нидимору / Raj Nidimoru) [2013, ужасы, боевик, комедия, WEBRip, Любительский (многоголосный) (ICG)] freetor.icu

Иди, Гоа больше нет через торрент freetor.icu

Размер: 1.58 GB | Добавлен: 8 лет 3 мес. назад | Торрент скачан:142 раза
Смотреть онлайн Иди, Гоа больше нет | Скачать    Ребята, помогите собрать деньги на оплату серверов!!!

03-06-2013 16:30 Иди, Гоа больше нет Скачать торрент  

Иди, Гоа больше нет / Go Goa Gone


  • Год выпуска:2013
  • Страна: Индия
  • Жанр:ужасы, боевик, комедия, приключения
  • Продолжительность: 01:48:22
  • Перевод:Любительский (многоголосный) (ICG)
    • Режиссер: Кришна Д. / Krishna D.K., Радж Нидимору / Raj Nidimoru
    • Продюсер: Саиф Али Кхан / Saif Ali Khan, Сунил Лула / Sunil Lula, Динеш Виджан / Dinesh Vijan, Сита Менон / Sita Menon, Прем Пиллаи / Prem Pillai
    • Сценарий:Сита Менон / Sita Menon, Кунал Кхему / Kunal Khemu, Кришна Д. / Krishna D.K., Радж Нидимору / Raj Nidimoru

  • В ролях:Саиф Али Кхан (Boris), Кунал Кхему (Hardik), Вир Дас (Luv), Ананд Тивари (Bunny), Пуджа Гупта (Luna), Соха Али Кхан (Cameo), Питобаш Трипати, Супэрн Верма (Cameo)
    • Описание:
      Хардик и Лув, два остолопа, решили отправиться на Гоа, вслед за своим приятелем, Банни, который едет туда по делам. Лув, как бы случайно, встречает общительную девушку, Луне, которая неожиданно предлагает им посетить эксклюзивную неформальную вечеринку на отдаленном острове! Хозяин вечеринки - брутальный индо-русский мафиози Борис. Но что-то не так с этим островом. Откуда взялись эти зомби? И кто такой Борис на самом деле? И почему этот бессердечный наркоторговец пришел, чтобы спасти их жизни?

  • Рейтинг
    imdb.com: 7.00 (1 962)
    • Качество: WEBRip
    • Формат: AVI
    • Видео кодек: XviD
    • Аудио кодек: AC3
    • Видео: XviD; 720x304 (2.35:1); 1432 Kbps; 24 fps; 0,273 bpp
    • Аудио №1: AC3; 320 Kbps; CBR; 2 ch; 16 bit, 48 kHz
      Аудио №2: AC3; 320 Kbps; CBR; 2 ch; 16 bit, 48 kHz Hindi

    C:UsersAcerDesktopÐèïîâàòüGo.Goa.Gone.2013.WEBRip.avi
    General
    Complete name : C:UsersAcerDesktopÐèïîâàòüGo.Goa.Gone.2013.WEBRip.avi
    Format : AVI
    Format/Info : Audio Video Interleave
    File size : 1.58 GiB
    Duration : 1h 48mn
    Overall bit rate : 2 087 Kbps
    Writing application : VirtualDubModRus 1.5.10.2 (build 2542/release)
    Writing library : VirtualDubMod build 2542/release
    Video #0
    ID : 0
    Format : MPEG-4 Visual
    Format profile : Advanced Simple@L5
    Format settings, BVOP : Yes
    Format settings, QPel : No
    Format settings, GMC : No warppoints
    Format settings, Matrix : Custom
    Codec ID : XVID
    Codec ID/Hint : XviD
    Duration : 1h 48mn
    Bit rate : 1 433 Kbps
    Width : 720 pixels
    Height : 304 pixels
    Display aspect ratio : 2.35:1
    Frame rate : 24.000 fps
    Color space : YUV
    Chroma subsampling : 4:2:0
    Bit depth : 8 bits
    Scan type : Progressive
    Compression mode : Lossy
    Bits/(Pixel*Frame) : 0.273
    Stream size : 1.08 GiB (69%)
    Writing library : XviD 1.2.1 (UTC 2008-12-04)
    Audio #1
    ID : 1
    Format : AC-3
    Format/Info : Audio Coding 3
    Mode extension : CM (complete main)
    Codec ID : 2000
    Duration : 1h 48mn
    Bit rate mode : Constant
    Bit rate : 320 Kbps
    Channel(s) : 2 channels
    Channel positions : Front: L R
    Sampling rate : 48.0 KHz
    Bit depth : 16 bits
    Compression mode : Lossy
    Stream size : 248 MiB (15%)
    Alignment : Aligned on interleaves
    Interleave, duration : 42 ms (1.00 video frame)
    Interleave, preload duration : 512 ms
    Audio #2
    ID : 2
    Format : AC-3
    Format/Info : Audio Coding 3
    Mode extension : CM (complete main)
    Codec ID : 2000
    Duration : 1h 48mn
    Bit rate mode : Constant
    Bit rate : 320 Kbps
    Channel(s) : 2 channels
    Channel positions : Front: L R
    Sampling rate : 48.0 KHz
    Bit depth : 16 bits
    Compression mode : Lossy
    Video delay : 28ms
    Stream size : 248 MiB (15%)
    Alignment : Split accross interleaves
    Interleave, duration : 42 ms (1.00 video frame)
    Interleave, preload duration : 500 ms
    Сценарий: Сита Менон / Sita Menon, Кунал Кхему / Kunal Khemu, Кришна Д. / Krishna D.K., Радж Нидимору / Raj Nidimoru
    Продюсер: Саиф Али Кхан / Saif Ali Khan, Сунил Лула / Sunil Lula, Динеш Виджан / Dinesh Vijan, Сита Менон / Sita Menon, Прем Пиллаи / Prem Pillai
    Оператор: Дэн МакАртур / Dan Macarthur, Lukas Pruchnik
    Композитор: Джигар / Jigar, Сачин / Sachin

    Сборы в США: $295 414

    Мировая премьера: 10 мая 2013


    Скриншоты


    © Оформление by Vetalfreetor.icu



  • Скачать Иди, Гоа больше нет через торрент http://i47.fastpic.ru/big/2013/0505/55/ff0fbc48f98fa52c0fc275351a996d55.png Скачать, смотреть онлайн Иди, Гоа больше нет бесплантно в хорошем качестве Описание:Хардик и Лув, два остолопа, решили отправиться на Гоа, вслед за своим приятелем, Банни, который едет туда по делам. Лув, как бы ... 8.8 10 12
    Info! Золотая раздача, скачанное не засчитывается.
    Торрент: Зарегистрирован [2013-06-03 16:30] · скачан: 142 раз
    Статус: √ проверено
    Размер: 1.58 GB
    Как cкачать? Как скачать Иди, Гоа больше нет через торрент | UTorrent

    28-11-2019 20:33  

    Отключить всю рекламу на сайте

      Дорогой пользователь! Огромная просьба, поблагодарите релизера, оцените раздачу и оставьте свои комментарий, если Вы скачали Иди, Гоа больше нет через торрент бесплатно!
      Комментировать посты могут только пользователи прошедшие не сложную регистрацию
      Показать сообщения:    

      Иди, Гоа больше нет через торрент
      Скачать бесплатно Иди, Гоа больше нет
      Иди, Гоа больше нет скачать торрент
      Иди, Гоа больше нет смотреть онлайн
      Cкачать фильм Иди, Гоа больше нет бесплатно
      Иди, Гоа больше нет скачать торрент в хорошем качестве
      Иди, Гоа больше нет смотреть онлайн бесплатно в хорошем качестве


      Вы не можете начинать темы
      Вы не можете отвечать на сообщения
      Вы не можете редактировать свои сообщения
      Вы не можете удалять свои сообщения
      Вы не можете голосовать в опросах
      Вы не можете прикреплять файлы к сообщениям
      Вы можете скачивать файлы