>

5.6

iTunes

6.1

MVO

5.7

MVO

1

7.4

1 сезон

6.8

iTunes

7.2

1 сезон

13

6.7

1 сезон

8.3

RePack

30

Deluxe

pack

9.9

Лицензия

ВАЖНО

ИГРА 18+

pack

7.3

RePack

MK11

7.7

RePack

jed

7.8

RePack

fifa19

8.5

RePack

RDR2

RePack

NEED FOR SPEED™ PAYBACK

4 сезон

9 сезон

Бесстыжие 9 сезон

Все сериалы

все сериалы на PB.wtf

RePack

FAR CRY 5

Anonymous, добрый день, мы катастрофически не успеваем собрать деньги на оплату серверов, помогите нам пожалуйста 5,10,15р., для нас важна любая помощь . В качестве благодарности мы отключим Вам всю рекламу на сайте (укажите свой ник в строку Ваше имя)!

×
  
Magnet ссылка

Давид / David (Беджой Намбиар / Bejoy Nambiar) [2013 , драма, мелодрама, криминал , DVDRip] MVO freetor.icu

Давид через торрент freetor.icu

Размер: 1.95 GB | Добавлен: 8 лет 3 мес. назад | Торрент скачан:50 раз
Смотреть онлайн Давид | Скачать    Ребята, помогите собрать деньги на оплату серверов!!!

01-06-2013 20:10 Давид Скачать торрент  

Давид / David

  • Год выпуска:2013
  • Страна: Индия
  • Жанр:драма, мелодрама, криминал
  • Продолжительность: 02:39:43
  • Перевод:Профессиональный (многоголосый, закадровый)
  • Субтитры: русские (внешние, полные и на песни с комментариями) softsub (SRT)
    • Режиссер: Беджой Намбиар / Bejoy Nambiar
    • Продюсер: Рэм Мирчадани / Ram Mirchandani, Беджой Намбиар / Bejoy Nambiar, Пирти Синха / Priti Sinha, Викрам Виней Синха / Vikram Vinay Sinha, Шарада Трилок / Sharada Trilok
    • Сценарий:Беджой Намбиар / Bejoy Nambiar, Наташа Сахгал / Natasha Sahgal

  • В ролях:Чийян Викрам (David), Нил Нитин Мукеш (David), Винай Вирмани (David, (Hindi Version only)), Табу (Frenny), Иша Шарвани (Roma), Лара Датта (Gayathri / Neelam), Шитал Менон, Нишан (Peter), Прахлад Каккар, Ремо Фернандес, Нассер (Father Noyal), Руби Чакраватхи
    • Описание:
      Фильм расскажет о жизнях 3-ех Давидов из трех различных частей мира, живущих в 3-ех различных эпохах.
      Год 1975. Лондон. 30-летний Давид работает на страшного мафиози, который контролирует все азиатское общество.
      Год 1999. Мумбаи. 19-летний Давид - музыкант, родившийся в семье благочестивых христиан. После того как его семья оказывается втянутой в политическое дело, его безмятежному существованию приходит конец.
      Год 2010. Гоа. 40-летний Давид - рыбак, живущий в небольшой деревушке. Он влюбляется в глухонемую. Единственная проблема в том, что она помолвлена с его лучшим другом.

  • Рейтинг
    imdb.com: 6.20 (994)
    • Качество: DVDRip
    • Формат: AVI
    • Видео кодек: XviD
    • Аудио кодек: AC3
    • Видео: 672x288 (2.33:1), 23.976 fps, XviD build 50 ~840 kbps avg
    • Аудио №1: AC3; 448 Kbps; CBR; 6 ch; 16 bit, 48 kHz
      Аудио №2: AC3; 448 Kbps; CBR; 6 ch; 16 bit, 48 kHz| хинди

    General
    Complete name : D:ТорентыDavid.2013.DVDRip.Rus.Original.ICG.IMG.GeneralFilmDavid.2013.DVDRip.Rus.Original.ICG.IMG.GeneralFilm.avi
    Format : AVI
    Format/Info : Audio Video Interleave
    File size : 1.95 GiB
    Duration : 2h 39mn
    Overall bit rate : 1 752 Kbps
    Writing application : VirtualDubModRus 1.5.10.2 (build 2542/release)
    Writing library : VirtualDubMod build 2542/release

    Video
    ID : 0
    Format : MPEG-4 Visual
    Format profile : Advanced Simple@L5
    Format settings, BVOP : 3
    Format settings, QPel : No
    Format settings, GMC : No warppoints
    Format settings, Matrix : Custom
    Codec ID : XVID
    Codec ID/Hint : XviD
    Duration : 2h 39mn
    Bit rate : 840Kbps
    Width : 672 pixels
    Height : 288 pixels
    Display aspect ratio : 2.35:1
    Frame rate : 23.976 fps
    Color space : YUV
    Chroma subsampling : 4:2:0
    Bit depth : 8 bits
    Scan type : Progressive
    Compression mode : Lossy
    Bits/(Pixel*Frame) : 0.167
    Stream size : 886 MiB (44%)
    Writing library : XviD 1.2.1 (UTC 2008-12-04)

    Audio #1
    ID : 1
    Format : AC-3
    Format/Info : Audio Coding 3
    Mode extension : CM (complete main)
    Codec ID : 2000
    Duration : 2h 39mn
    Bit rate mode : Constant
    Bit rate : 448 Kbps
    Channel(s) : 6 channels
    Channel positions : Front: L C R, Side: L R, LFE
    Sampling rate : 48.0 KHz
    Bit depth : 16 bits
    Compression mode : Lossy
    Stream size : 512 MiB (26%)
    Alignment : Split accross interleaves

    Audio #2
    ID : 2
    Format : AC-3
    Format/Info : Audio Coding 3
    Mode extension : CM (complete main)
    Codec ID : 2000
    Duration : 2h 39mn
    Bit rate mode : Constant
    Bit rate : 448 Kbps
    Channel(s) : 6 channels
    Channel positions : Front: L C R, Side: L R, LFE
    Sampling rate : 48.0 KHz
    Bit depth : 16 bits
    Compression mode : Lossy
    Stream size : 512 MiB (26%)
    Alignment : Split accross interleaves
    Сценарий: Беджой Намбиар / Bejoy Nambiar, Наташа Сахгал / Natasha Sahgal
    Продюсер: Рэм Мирчадани / Ram Mirchandani, Беджой Намбиар / Bejoy Nambiar, Пирти Синха / Priti Sinha, Викрам Виней Синха / Vikram Vinay Sinha, Шарада Трилок / Sharada Trilok
    Оператор: Р. Ратнавель / R. Rathnavelu, Сану Джон Варухесе / Sanu John Varughese, П.С. Винод / P.S. Vinod
    Композитор: Maati Baani, Bramfatura, Ремо Фернандес / Remo Fernandes, Modern Mafia / Modern Mafia, Прашант Пиллаи / Prashant Pillai

    Бюджет: INR 500 000 000

    Мировая премьера: 31 января 2013


    Скриншоты
    © Оформление by Vetalfreetor.icu



  • Скачать Давид через торрент http://i47.fastpic.ru/big/2013/0505/55/ff0fbc48f98fa52c0fc275351a996d55.png Скачать, смотреть онлайн Давид бесплантно в хорошем качестве Описание:Фильм расскажет о жизнях 3-ех Давидов из трех различных частей мира, живущих в 3-ех различных эпохах.Год 197 Лондон. 30-летний ... 8.9 10 8
    Info! Золотая раздача, скачанное не засчитывается.
    Торрент: Зарегистрирован [2013-06-01 20:10] · скачан: 50 раз
    Статус: √ проверено
    Размер: 1.95 GB
    Как cкачать? Как скачать Давид через торрент | UTorrent

    % Раздел Тема Автор DL S | L
    Фильмы 2013 [DVDrip, WEB-DLRip, HDrip] [ 746 MB ] Эпидемия / Los últimos días [2013 Испания BDRip-AVC от sokol_ok] MVO [] sokol_ok Скачать
    2 | 0
    Фильмы 2013 [DVDrip, WEB-DLRip, HDrip] [ 2.18 GB ] Эпидемия / Los últimos días [2013 Испания BDRip-AVC от sokol_ok] MVO [] sokol_ok Скачать
    3 | 0
    Фильмы 2013 [DVDrip, WEB-DLRip, HDrip] [ 1.47 GB ] Эпидемия / Los últimos días [2013 Испания BDRip-AVC от sokol_ok] MVO [] sokol_ok Скачать
    2 | 0
    Зарубежные сериалы [ 8.4 GB ] Корпорация / Incorporated / Сезон 1 / Серии 1-10 из 10 [2016 WEBRip-AVC WEB-DLRip-AVC] MVO [BaibaKo] GEKADOL Скачать
    1 | 0

    28-11-2019 20:33  

    Отключить всю рекламу на сайте

      Дорогой пользователь! Огромная просьба, поблагодарите релизера, оцените раздачу и оставьте свои комментарий, если Вы скачали Давид через торрент бесплатно!
      Комментировать посты могут только пользователи прошедшие не сложную регистрацию
      Показать сообщения:    

      Давид через торрент
      Скачать бесплатно Давид
      Давид скачать торрент
      Давид смотреть онлайн
      Cкачать фильм Давид бесплатно
      Давид скачать торрент в хорошем качестве
      Давид смотреть онлайн бесплатно в хорошем качестве


      Вы не можете начинать темы
      Вы не можете отвечать на сообщения
      Вы не можете редактировать свои сообщения
      Вы не можете удалять свои сообщения
      Вы не можете голосовать в опросах
      Вы не можете прикреплять файлы к сообщениям
      Вы можете скачивать файлы